<?xml version="1.0" standalone="no"?>
<!DOCTYPE svg PUBLIC "-//W3C//DTD SVG 1.1//EN" "http://www.w3.org/Graphics/SVG/1.1/DTD/svg11.dtd" >
<svg xmlns="http://www.w3.org/2000/svg">
<metadata>Generated by IcoMoon</metadata>
<defs>
<font id="icomoon" horiz-adv-x="1024">
<font-face units-per-em="1024" ascent="960" descent="-64" />
<missing-glyph horiz-adv-x="1024" />
<glyph unicode="&#x20;" horiz-adv-x="512" d="" />
<glyph unicode="&#xe900;" glyph-name="loupe" horiz-adv-x="916" d="M904.839-1.267l-247.323 283.702c78.363 71.572 128 174.242 128 288.552 0 215.633-175.481 391.060-391.114 391.060s-391.060-175.427-391.060-391.060c0-215.741 175.427-391.114 391.060-391.114 65.805 0 127.784 16.438 182.218 45.272l253.844-291.247 74.375 64.835zM101.915 570.988c0 161.307 131.234 292.487 292.487 292.487 161.307 0 292.487-131.18 292.487-292.487s-131.234-292.487-292.487-292.487c-161.253 0-292.487 131.18-292.487 292.487z" />
<glyph unicode="&#xe901;" glyph-name="mln" horiz-adv-x="1136" d="M621.443 947.7c-248.982 0-461.175-185.094-494.967-431.067h-86.89c-10.178 0-18.22-4.121-22.078-11.301-3.809-7.168-2.772-16.134 2.872-24.588l94.083-140.763c5.432-8.117 13.387-12.75 21.841-12.75 8.429 0 16.384 4.633 21.804 12.738l94.108 140.775c5.644 8.467 6.693 17.433 2.86 24.601-3.834 7.18-11.863 11.301-22.041 11.301h-85.479c33.642 234.259 236.232 410.187 473.887 410.187 264.030 0 478.845-214.803 478.845-478.857 0-264.017-214.815-478.832-478.845-478.832-5.47 0-10.914 0.1-16.347 0.262l-0.712-20.842c5.669-0.2 11.351-0.275 17.046-0.275 275.531 0 499.7 224.156 499.7 499.687 0 275.556-224.156 499.724-499.687 499.724zM236.369 495.341c-0.175-0.612-0.562-1.611-1.486-3.010l-94.108-140.763c-2.872-4.321-6.069-4.283-8.954 0l-94.096 140.775c-0.924 1.386-1.324 2.385-1.499 2.997 0.612 0.2 1.673 0.425 3.359 0.425h193.449c1.686 0 2.747-0.225 3.334-0.425zM273.957 88.876c8.367-8.067 17.096-15.947 25.95-23.402l13.412 15.947c-8.492 7.143-16.846 14.711-24.851 22.453l-14.511-14.998zM232.698 134.007c7.305-9.041 15.010-17.92 22.903-26.399l15.273 14.224c-7.555 8.117-14.948 16.646-21.966 25.3l-16.209-13.125zM214.928 194.86l-17.72-11.052c6.132-9.815 12.713-19.556 19.518-28.972l16.884 12.251c-6.506 9.016-12.812 18.357-18.682 27.773zM543.507-45.655c11.514-1.811 23.177-3.222 34.704-4.196l1.773 20.78c-11.027 0.937-22.216 2.298-33.255 4.021l-3.222-20.605zM186.992 246.384l-18.907-8.804c4.908-10.54 10.215-21.029 15.847-31.17l18.257 10.103c-5.395 9.728-10.502 19.781-15.198 29.871zM320.412 49.102c9.353-7.043 18.994-13.812 28.61-20.080l11.376 17.47c-9.216 6.019-18.444 12.488-27.411 19.269l-12.575-16.659zM371.375 15.285c10.015-5.794 20.38-11.326 30.832-16.446l9.179 18.732c-10.028 4.92-19.98 10.215-29.571 15.785l-10.44-18.070zM483.778-32.506c11.152-3.184 22.565-6.019 33.929-8.429l4.321 20.418c-10.889 2.31-21.841 5.020-32.518 8.067l-5.732-20.055zM426.084-12.076c10.74-4.558 21.704-8.779 32.656-12.538l6.768 19.718c-10.452 3.609-20.992 7.643-31.257 12.013l-8.167-19.194zM171.133 284.822l-19.618-7.081c1.936-5.37 3.984-10.69 6.107-15.972l19.344 7.805c-2.023 5.020-3.971 10.115-5.832 15.248zM500.311 374.334c-5.757 0-10.427-4.67-10.427-10.427 0-5.782 4.67-10.44 10.427-10.44h48.353v-131.934c0-5.769 4.658-10.427 10.427-10.427 5.757 0 10.44 4.658 10.44 10.427v131.934h124.054c5.769 0 10.44 4.658 10.44 10.44 0 5.757-4.67 10.427-10.44 10.427h-124.054v48.153h12.725c0.437 0 0.812 0.2 1.249 0.262 122.643 2.572 203.052 30.895 203.052 146.619 0 49.115-9.628 79.635-32.244 102.075-31.12 30.895-87.777 44.781-183.221 44.781-2.51 0-5.033-0.012-7.58-0.025-0.762 0-1.436-0.287-2.148-0.45-0.749 0.162-1.449 0.45-2.248 0.45-5.769 0-10.427-4.658-10.427-10.44v-262.406h-48.353c-5.757 0-10.427-4.67-10.427-10.427 0-5.769 4.67-10.44 10.427-10.44h48.353v-48.153h-48.378zM739.628 656.634c18.27-18.145 26.075-44.244 26.075-87.265 0-91.748-51.65-125.015-196.158-125.927v251.879c89.2 0.125 143.36-12.176 170.084-38.687z" />
<glyph unicode="&#xe902;" glyph-name="arrows" d="M131.666 622.469h103.096v-297.021c0-13.128 10.404-23.798 23.204-23.798h115.323c12.8 0 23.224 10.67 23.224 23.798v297.021h103.076l-183.951 289.792-183.972-289.792zM372.101 646.861v-320.819l-112.947-0.594v321.413h-83.149l139.612 219.894 139.571-219.894h-83.087zM789.258 306.606v297.021c0 13.128-10.445 23.798-23.245 23.798h-115.282c-12.82 0-23.224-10.67-23.224-23.798v-297.021h-103.117l183.972-289.812 183.951 289.812h-103.055zM568.791 282.194h83.128l-1.188 320.84 114.115 0.594v-321.434h83.128l-139.592-219.894-139.592 219.894z" />
<glyph unicode="&#xe903;" glyph-name="base" horiz-adv-x="1136" d="M567.895 947.65c-275.518 0-499.65-224.144-499.65-499.65s224.131-499.662 499.65-499.662c275.506 0 499.65 224.144 499.65 499.662-0.012 275.506-224.156 499.65-499.65 499.65zM567.895-30.795c-264.017 0-478.795 214.778-478.795 478.795 0 264.005 214.778 478.782 478.795 478.782 264.005 0 478.782-214.778 478.782-478.782-0.012-264.017-214.79-478.795-478.782-478.795zM567.895 720.297c-150.141 0-272.297-122.156-272.297-272.297s122.143-272.297 272.297-272.297c150.128 0 272.297 122.143 272.297 272.297-0.012 150.128-122.168 272.297-272.297 272.297zM567.895 196.571c-138.627 0-251.429 112.79-251.429 251.429s112.802 251.429 251.429 251.429c138.652 0 251.429-112.79 251.429-251.429s-112.79-251.429-251.429-251.429z" />
<glyph unicode="&#xe904;" glyph-name="cottage" horiz-adv-x="1136" d="M929.954 209.008c-1.199 27.011-41.447 84.168-154.025 97.467 57.781 48.428 104.073 119.746 99.578 223.906-11.676 270.686-239.628 394.877-306.975 395.364l-1.099 0.012c-67.609-0.5-295.561-124.678-307.25-395.376-4.496-104.148 41.809-175.541 99.615-223.994-112.103-13.462-152.201-70.494-153.363-97.405l-0.050-0.262 0.075-2.273c1.598-20.992 38.2-96.356 192.2-100.065 2.597-0.050 5.145-0.1 7.668-0.1 84.318 0 128.612 33.655 151.015 61.677v-197.732h20.867v198.768c22.128-28.222 66.485-62.701 151.839-62.701 0.025 0 0.025 0 0.025 0 2.535 0 5.045 0.050 7.655 0.1 154.062 3.709 190.639 79.123 192.2 100.090l0.062 0.35-0.037 2.173zM406.328 127.176c-2.348 0-4.745 0.037-7.168 0.087-139.351 3.347-171.707 68.683-171.895 80.621 0.162 11.002 29.559 71.792 155.773 79.747 67.272-47.529 142.998-67.497 171.358-73.728 1.211-2.448 2.11-4.508 2.722-6.019-5.932-14.873-38.562-80.709-150.79-80.709zM400.696 300.856c0.037 0 0.087 0.012 0.125 0.012-83.493 56.445-123.904 133.195-119.783 228.627 11.102 257.623 231.087 374.984 287.082 375.383 55.458-0.4 275.419-117.76 286.533-375.396 4.133-95.831-36.552-172.869-120.757-229.364h0.050c-61.602-41.435-129.261-59.604-155.748-65.511v510.576h-20.867v-192.687l-106.621 88.326-13.3-16.072 119.933-99.365v-98.192l-106.621 88.326-13.3-16.084 119.933-99.353v-165.451c-27.286 6.069-94.97 24.401-156.66 66.223zM737.218 127.251c-2.385-0.050-4.783-0.087-7.143-0.087 0 0 0 0-0.025 0-112.99 0.012-144.908 65.499-150.79 80.646 0.624 1.586 1.548 3.709 2.835 6.269 28.272 6.244 103.799 26.349 170.633 73.578 126.714-7.767 156.235-68.745 156.385-79.785-0.187-11.938-32.543-77.275-171.895-80.621z" />
<glyph unicode="&#xe905;" glyph-name="doli" horiz-adv-x="1136" d="M568.195 947.662c-275.506 0-499.65-224.156-499.65-499.662s224.144-499.662 499.65-499.662c275.518 0 499.65 224.144 499.65 499.662s-224.131 499.662-499.65 499.662zM1046.99 448c0-122.293-46.142-233.972-121.868-318.701l-215.877 188.466c31.694 34.292 51.237 79.972 51.237 130.235 0 102.5-80.671 186.268-181.847 191.738l0.025 286.782c259.159-5.595 468.33-218.012 468.33-478.52zM396.775 448c0 94.52 76.887 171.408 171.395 171.408 94.533 0 171.445-76.875 171.445-171.408s-76.912-171.445-171.445-171.445c-94.495 0-171.395 76.925-171.395 171.445zM557.768 926.533v-286.782c-101.151-5.457-181.847-89.238-181.847-191.738 0-52.823 21.429-100.727 56.033-135.53l-212.218-192.312c-80.709 85.729-130.323 201.066-130.323 327.83 0 260.508 209.183 472.938 468.355 478.533zM568.195-30.795c-129.748 0-247.533 51.962-333.849 136.067l213.217 193.186c33.018-26.686 74.952-42.758 120.607-42.758 48.253 0 92.297 17.995 126.102 47.454l216.588-189.078c-87.015-89.275-208.446-144.871-342.665-144.871z" />
<glyph unicode="&#xe906;" glyph-name="heart" d="M512.287 32.113l-7.803 5.837c-3.789 2.99-378.102 300.237-404.91 544.87-6.451 59.167 8.008 110.858 43.028 153.62 38.277 46.756 83.108 70.472 133.243 70.472 107.315 0 205.435-108.134 236.175-145.592 30.761 37.458 128.881 145.592 236.155 145.592 50.135 0 94.966-23.716 133.222-70.472 34.755-42.455 49.275-93.696 43.151-152.33-24.904-238.387-389.222-533.504-404.726-545.935l-7.537-6.062zM275.845 782.541c-42.476 0-80.957-20.705-114.381-61.542-30.597-37.396-43.254-82.801-37.663-135.004 22.876-213.258 335.237-479.048 388.219-522.732 54.047 44.564 366.019 310.313 388.28 523.387 5.407 51.917-7.27 97.116-37.765 134.349-33.423 40.837-71.885 61.542-114.36 61.542-115.18 0-225.219-146.637-226.345-148.111l-9.953-13.435-9.769 13.578c-1.004 1.331-111.063 147.968-226.263 147.968z" />
<glyph unicode="&#xe907;" glyph-name="ipoteka" horiz-adv-x="1136" d="M1017.893 266.752c-0.774 6.718-1.823 15.897-2.747 29.733-0.837 12.95-6.843 23.589-17.346 30.745-34.891 23.827-109.193 2.86-131.122-4.108-39.287-12.488-130.085-41.010-190.127-59.854 5.008 6.756 8.404 14.623 8.292 23.602-0.275 27.835-7.73 48.278-22.128 60.753-15.073 13.1-32.631 12.538-36.777 12.176h-187.729c-10.565 9.878-42.783 39.199-62.339 47.191-18.707 7.668-76.288 13.662-99.915 15.872v19.643c0 31.856-25.9 57.769-57.744 57.769h-43.058c-31.856 0-57.744-25.912-57.744-57.769v-293.413c0-31.831 25.887-57.731 57.744-57.731h43.058c31.844 0 57.744 25.9 57.744 57.731v21.029c61.265-37.226 257.524-154.674 297.31-155.935 1.024-0.025 2.023-0.037 3.060-0.037 44.994 0 102.625 30.533 105.147 31.881 214.953 115.837 326.781 179.687 332.388 189.765 6.269 11.289 5.669 16.659 4.034 30.957zM255.101 149.079c0-20.343-16.546-36.864-36.889-36.864h-11.114v106.721h-20.842v-106.721h-11.114c-20.343 0-36.889 16.521-36.889 36.864v293.426c0 20.355 16.546 36.901 36.889 36.901h43.058c20.343 0 36.889-16.546 36.889-36.901v-293.426zM996.202 246.934c-16.509-14.436-207.048-119.171-324.608-182.547-0.587-0.3-58.093-30.695-97.667-29.384-28.909 0.937-195.896 97.055-297.972 159.532v207.372c28.085-2.685 77.762-8.367 92.023-14.224 15.76-6.456 47.828-35.303 58.855-45.868l3.022-2.897 197.944 0.1c0.125 0.037 11.564 1.274 21.242-7.143 9.578-8.267 14.723-23.902 14.935-45.206 0.175-14.811-24.851-28.235-35.59-32.681l-188.778-8.254 0.437-20.867h183.808l1.524 0.475c0 0 186.405 58.455 247.621 77.899 50.9 16.247 95.307 18.882 113.027 6.768 5.232-3.572 7.88-8.292 8.304-14.86 0.937-14.348 2.036-23.827 2.822-30.757 1.399-12.163 1.499-12.962-0.949-17.458zM700.641 712.529c0 35.091-28.535 63.638-63.613 63.638-35.103 0-63.638-28.547-63.638-63.638 0-35.078 28.535-63.625 63.638-63.625 35.078 0 63.613 28.547 63.613 63.625zM637.040 669.771c-23.589 0-42.771 19.181-42.771 42.758 0 23.589 19.181 42.783 42.771 42.783 23.577 0 42.758-19.194 42.758-42.783 0-23.577-19.194-42.758-42.758-42.758zM637.040 860.997c75.714 0 137.341-61.615 137.341-137.353h20.855c0 87.24-70.956 158.208-158.196 158.208-87.227 0-158.208-70.968-158.208-158.208h20.855c0 75.739 61.615 137.353 137.353 137.353zM689.527 560.153v34.804c46.467 20.23 77.2 66.585 77.2 117.573 0 70.743-57.556 128.312-128.287 128.312-70.756 0-128.312-57.569-128.312-128.312 0-50.988 30.732-97.33 77.225-117.573v-124.503c0-32.368 22.903-58.693 51.1-58.693 26.824 0 48.727 23.152 50.925 53.847l0.774 11.177h-18.981c-0.45 1.561-0.887 3.934-0.887 7.143s0.437 5.595 0.862 7.143h18.395v33.617h-15.672c-1.698 1.399-5.033 7.692-5.033 17.72 0 10.053 3.347 16.347 5.033 17.733h15.66zM668.672 609.28v-28.834c-12.076-3.084-20.717-18.407-20.717-38.025 0-14.136 4.483-26.025 11.514-32.731-6.231-4.071-10.078-13.424-10.078-25.75 0-16.384 6.781-27.511 16.908-27.998-4.608-13.699-15.522-23.315-27.873-23.315-16.696 0-30.258 16.971-30.258 37.838v138.814l-6.818 2.523c-42.096 15.522-70.394 55.983-70.394 100.727 0 59.255 48.215 107.445 107.458 107.445s107.445-48.203 107.445-107.445c0-44.744-28.31-85.204-70.381-100.727l-6.806-2.523z" />
<glyph unicode="&#xe908;" glyph-name="man" d="M788.316 226.12c17.736 0 34.959-3.871 51.261-11.489l16.22-7.168 1.126 17.859c0.184 2.847 3.604 70.267-63.508 137.339-65.72 65.741-148.705 84.767-152.187 85.545l-8.479 1.884-131.85-213.381-131.85 213.381-8.458-1.884c-3.502-0.778-86.487-19.804-152.228-85.545-67.072-67.072-63.652-134.492-63.508-136.561v-198.042h546.345l-9.851 18.043c-9.687 17.756-14.807 37.888-14.807 58.245 0.020 67.133 54.641 121.774 121.774 121.774zM642.15 104.366c0-17.756 3.256-35.389 9.503-51.876h-482.365v174.326c-0.164 2.396-2.519 59.72 56.361 118.62 49.029 49.029 110.121 70.328 131.994 76.739l143.258-231.854 143.278 231.854c21.873-6.41 82.964-27.73 131.973-76.739 40.018-39.997 51.732-79.278 55.112-101.458-13.926 4.342-28.303 6.513-42.967 6.513-80.568 0-146.145-65.556-146.145-146.125zM859.218 166.318l-68.731-97.997-58.716 58.675-17.224-17.244 79.258-79.237 85.381 121.795zM352.256 564.347c24.494-77.414 73.359-115.036 149.361-115.036 84.582 0 142.541 42.926 163.553 122.184 25.068 94.679 25.354 147.538 21.217 175.206-12.37 82.35-96.973 151.941-184.771 151.941-99.246 0-162.222-78.397-178.77-151.204-12.186-53.637 18.043-147.681 27.955-178.606l1.454-4.485zM346.665 742.011c14.459 63.672 69.12 132.219 154.952 132.219 83.087 0 151.347-69.12 160.666-131.154 3.809-25.395 3.277-74.691-21.033-166.666-17.797-67.195-66.089-102.707-139.612-102.707-65.761 0-104.653 30.249-126.116 98.017l-1.454 4.567c-25.293 78.705-34.509 134.451-27.402 165.724z" />
<glyph unicode="&#xe909;" glyph-name="marker-fill" horiz-adv-x="717" d="M358.4 954.88c-194.458 0-352.092-157.635-352.092-352.113 0-194.458 352.092-663.060 352.092-663.060s352.092 468.623 352.092 663.060c0 194.478-157.635 352.113-352.092 352.113zM358.4 441.139c-97.71 0-176.927 79.217-176.927 176.947s79.217 176.927 176.927 176.927c97.71 0 176.927-79.196 176.927-176.927s-79.217-176.947-176.927-176.947z" />
<glyph unicode="&#xe90a;" glyph-name="marker" horiz-adv-x="717" d="M358.4-44.524l-8.192 10.875c-13.558 18.043-331.899 443.822-331.899 627.302 0 187.535 152.556 340.091 340.070 340.091s340.070-152.556 340.070-340.091c0-183.48-318.341-609.26-331.899-627.302l-8.151-10.875zM358.4 913.265c-176.23 0-319.59-143.38-319.59-319.611 0-160.85 268.841-534.774 319.59-603.914 50.749 69.14 319.59 443.085 319.59 603.914 0 176.23-143.38 319.611-319.59 319.611zM358.4 432.005c-97.034 0-175.985 78.95-175.985 175.985s78.93 175.964 175.985 175.964 175.985-78.93 175.985-175.964c0-97.034-78.95-175.985-175.985-175.985zM358.4 763.494c-85.75 0-155.505-69.755-155.505-155.484 0-85.75 69.755-155.505 155.505-155.505s155.505 69.755 155.505 155.505c0 85.729-69.755 155.484-155.505 155.484z" />
<glyph unicode="&#xe90b;" glyph-name="new" horiz-adv-x="1136" d="M117.785 464.459h865.105v-20.867h-865.105v20.867zM117.785 286.395h865.105v-20.855h-865.105v20.855zM117.785 108.344h865.105v-20.855h-865.105v20.855zM894.064 774.406h-20.867v-64.949h-64.924v-20.855h64.924v-64.949h20.867v64.949h64.937v20.855h-64.937zM884.112 858.412c-57.169 0-107.445-29.684-136.492-74.39h-642.435v-171.982h639.513c28.497-47.341 80.234-79.185 139.401-79.185 89.762 0 162.779 73.029 162.779 162.779s-73.016 162.779-162.766 162.779zM735.769 762.268c-9.191-20.368-14.423-42.883-14.423-66.635 0-21.579 4.321-42.146 11.976-61.015h-0.062c0.187-0.45 0.3-0.912 0.487-1.349h-607.319v129.524h609.542c-0.087-0.175-0.137-0.35-0.2-0.524zM884.112 554.084c-53.673 0-100.464 30.033-124.453 74.165-1.099 2.085-1.973 4.258-2.985 6.369h-0.087c-8.891 18.507-14.024 39.149-14.024 61.015 0 24.014 6.044 46.629 16.646 66.46h0.412c0.937 1.761 1.736 3.596 2.722 5.332 24.663 41.659 69.944 69.744 121.769 69.744 78.049 0 141.562-63.5 141.562-141.549s-63.513-141.537-141.562-141.537z" />
<glyph unicode="&#xe90c;" glyph-name="pereystypka" horiz-adv-x="1025" d="M123.083 352.467c42.688 9.062 74.821 47.020 74.821 92.38 0 45.329-32.112 83.298-74.779 92.38 36.664 154.934 163.933 274.75 320.893 301.851v-66.104c0-13.968 8.915-20.326 17.204-20.326 4.218 0 8.508 1.441 12.778 4.301l117.696 78.642c6.765 4.531 10.659 11.16 10.659 18.238 0 7.057-3.894 13.718-10.648 18.228l-117.707 78.673c-4.259 2.84-8.55 4.301-12.778 4.301-8.289 0-17.204-6.358-17.204-20.336v-77.786c-165.896-27.362-300.671-154.016-338.515-317.698-0.699 0.010-1.368 0.104-2.077 0.104-52.094 0-94.468-42.395-94.468-94.478 0-52.094 42.374-94.468 94.468-94.468 0.731 0 1.451 0.094 2.182 0.115 33.459-144.829 141.655-261.387 284.281-305.097l5.095 16.682c-136.007 41.675-239.328 152.523-271.9 290.399zM461.441 934.694c0 1.409 0.198 2.297 0.355 2.798 0.522-0.146 1.357-0.48 2.526-1.253l117.696-78.694c1.785-1.18 2.892-2.61 2.892-3.716s-1.107-2.537-2.892-3.727l-117.696-78.652c-1.169-0.793-2.004-1.117-2.526-1.253-0.167 0.491-0.355 1.378-0.355 2.787v161.709zM26.391 444.837c0 42.489 34.576 77.055 77.034 77.055 42.479 0 77.044-34.566 77.044-77.055 0-42.458-34.566-77.023-77.044-77.023-42.468 0-77.034 34.566-77.034 77.023zM673.167 444.837c0 88.632-72.127 160.749-160.749 160.749-88.632 0-160.749-72.117-160.749-160.749 0-88.622 72.117-160.739 160.749-160.739 88.622 0 160.749 72.117 160.749 160.739zM369.092 444.837c0 79.028 64.298 143.325 143.325 143.325s143.315-64.287 143.315-143.325c0-79.017-64.287-143.294-143.315-143.294s-143.325 64.277-143.325 143.294zM921.379 539.315c-0.731 0-1.441-0.094-2.171-0.115-32.164 139.15-135.182 253.975-270.636 300.65l-5.7-16.495c129.18-44.504 227.531-153.692 258.86-286.129-42.688-9.062-74.821-47.041-74.821-92.391 0-45.402 32.196-83.392 74.946-92.422-36.351-153.713-161.459-272.568-316.435-301.183v75.416c0 13.979-8.926 20.347-17.225 20.347-4.197 0-8.508-1.451-12.789-4.301l-117.665-78.642c-6.786-4.541-10.669-11.16-10.669-18.238-0.010-7.047 3.873-13.718 10.648-18.248l117.696-78.662c4.27-2.85 8.581-4.312 12.789-4.312 8.299 0 17.225 6.379 17.225 20.336v68.63c163.881 28.949 296.349 154.464 333.869 316.905 0.699-0.010 1.378-0.104 2.077-0.104 52.104 0 94.478 42.374 94.478 94.468 0 52.104-42.364 94.489-94.478 94.489zM567.988-35.061c0-1.399-0.198-2.297-0.355-2.787-0.512 0.136-1.347 0.47-2.516 1.242l-117.696 78.673c-1.796 1.201-2.902 2.62-2.902 3.748 0 1.096 1.107 2.537 2.923 3.727l117.675 78.652c1.169 0.783 2.004 1.096 2.516 1.242 0.167-0.491 0.355-1.378 0.355-2.798v-161.699zM568.196-46.691v8.728c0 0 0 0 0.021 0l-0.021-8.728zM921.379 367.813c-42.458 0-77.023 34.566-77.023 77.023 0 42.489 34.566 77.055 77.023 77.055 42.479 0 77.044-34.566 77.044-77.055 0-42.458-34.555-77.023-77.044-77.023z" />
<glyph unicode="&#xe90d;" glyph-name="remont" horiz-adv-x="1136" d="M872.623 810.234h-392.554c-25.75 0-46.704-20.955-46.704-46.729v-238.929c0-25.75 20.967-46.704 46.704-46.704h68.508l73.703-244.773h-24.851c-23.527 0-132.508-106.808-132.508-129.848v-39.224c0-23.564 18.619-42.733 41.46-42.733h339.918c22.878 0 41.46 19.169 41.46 42.733v126.339c0 23.564-18.582 42.733-41.46 42.733h-42.159l-73.728 244.773h142.211c25.75 0 46.717 20.955 46.717 46.704v238.929c0 25.775-20.967 46.729-46.717 46.729zM866.903 190.364v-126.339c0-12.051-9.228-21.879-20.605-21.879h-339.906c-11.351 0-20.567 9.828-20.567 21.879v38.612c5.307 17.708 93.921 104.248 112.24 109.605h198.306c0.062 0 0.1-0.025 0.162 0h49.751c11.389 0 20.617-9.803 20.617-21.879zM782.336 233.097h-138.252l-73.703 244.773h138.228l73.728-244.773zM898.473 524.575c0-14.249-11.601-25.85-25.85-25.85h-392.542c-14.249 0-25.85 11.614-25.85 25.85v238.929c0 14.261 11.614 25.875 25.85 25.875h392.554c14.261 0 25.85-11.614 25.85-25.875v-238.929zM399.173 785.083c-5.382 0-10.827-2.16-16.209-6.431l-140.975-111.716c-7.38-5.844-11.626-14.174-11.626-22.865 0-8.704 4.246-17.021 11.601-22.865l141-111.741c5.382-4.271 10.827-6.431 16.209-6.431 9.591 0 19.231 7.28 19.231 23.577v234.896c0 16.297-9.653 23.577-19.231 23.577zM397.537 526.598c0-0.749-0.025-1.361-0.1-1.873-0.437 0.262-0.949 0.624-1.524 1.074l-140.987 111.753c-2.36 1.873-3.684 4.196-3.684 6.506s1.311 4.633 3.709 6.506l140.962 111.716c0.599 0.462 1.086 0.812 1.524 1.086 0.075-0.524 0.1-1.136 0.1-1.873v-234.896zM197.22 657.021h-74.802c-6.881 0-12.463-4.371-12.463-9.765s5.582-9.765 12.463-9.765h74.802c6.906 0 12.475 4.371 12.475 9.765s-5.57 9.765-12.475 9.765z" />
<glyph unicode="&#xe90e;" glyph-name="study" d="M638.403 838.656h-400.179v-814.776h547.553v686.285l-147.374 128.492zM761.385 48.271h-498.77v765.993h366.633l132.116-115.2v-650.793zM354.345 497.213h308.163v-24.392h-308.163v24.392zM354.345 389.714h308.163v-24.392h-308.163v24.392z" />
<glyph unicode="&#xe90f;" glyph-name="heart1" d="M512.287 32.113l-7.803 5.837c-3.789 2.99-378.102 300.237-404.91 544.87-6.451 59.167 8.008 110.858 43.028 153.62 38.277 46.756 83.108 70.472 133.243 70.472 107.315 0 205.435-108.134 236.175-145.592 30.761 37.458 128.881 145.592 236.155 145.592 50.135 0 94.966-23.716 133.222-70.472 34.755-42.455 49.275-93.696 43.151-152.33-24.904-238.387-389.222-533.504-404.726-545.935l-7.537-6.062zM275.845 782.541c-42.476 0-80.957-20.705-114.381-61.542-30.597-37.396-43.254-82.801-37.663-135.004 22.876-213.258 335.237-479.048 388.219-522.732 54.047 44.564 366.019 310.313 388.28 523.387 5.407 51.917-7.27 97.116-37.765 134.349-33.423 40.837-71.885 61.542-114.36 61.542-115.18 0-225.219-146.637-226.345-148.111l-9.953-13.435-9.769 13.578c-1.004 1.331-111.063 147.968-226.263 147.968z" />
<glyph unicode="&#xe910;" glyph-name="arrow-down" d="M962.878 685.346c-12.701 12.701-33.34 12.701-46.040 0l-404.837-405.631-405.631 405.631c-12.701 12.701-33.34 12.701-46.040 0s-12.701-33.34 0-46.040l427.857-427.857c6.35-6.35 14.288-9.526 23.020-9.526 7.938 0 16.67 3.175 23.020 9.526l427.857 427.857c13.495 12.701 13.495 33.34 0.794 46.040z" />
<glyph unicode="&#xe911;" glyph-name="arrow-right2" d="M320.695-2.878c-6.35-6.35-14.288-9.526-23.020-9.526s-16.67 3.175-23.020 9.526c-12.701 12.701-12.701 33.34 0 46.040l404.837 404.837-404.837 404.837c-12.701 12.701-12.701 33.34 0 46.040s33.34 12.701 46.040 0l427.857-427.857c12.701-12.701 12.701-33.34 0-46.040l-427.857-427.857z" />
<glyph unicode="&#xe912;" glyph-name="menu2" d="M982.636 489.364h-941.272c-22.844 0-41.364-18.518-41.364-41.364s18.52-41.364 41.364-41.364h941.272c22.846 0 41.364 18.518 41.364 41.364 0 22.844-18.518 41.364-41.364 41.364zM982.636 803.122h-941.272c-22.844 0-41.364-18.52-41.364-41.364s18.52-41.364 41.364-41.364h941.272c22.846 0 41.364 18.52 41.364 41.364s-18.518 41.364-41.364 41.364zM982.636 175.606h-941.272c-22.844 0-41.364-18.518-41.364-41.364s18.52-41.364 41.364-41.364h941.272c22.846 0 41.364 18.518 41.364 41.364s-18.518 41.364-41.364 41.364z" />
<glyph unicode="&#xe913;" glyph-name="cancel" d="M581.458 448l428.205 428.205c19.181 19.181 19.181 50.277 0 69.458s-50.277 19.181-69.458 0l-428.205-428.205-428.205 428.14c-19.181 19.181-50.277 19.181-69.458 0s-19.181-50.277 0-69.458l428.205-428.205-428.14-428.14c-19.181-19.181-19.181-50.277 0-69.458 9.623-9.558 22.127-14.402 34.696-14.402s25.138 4.779 34.696 14.402l428.205 428.205 428.205-428.205c9.623-9.558 22.127-14.402 34.696-14.402s25.138 4.779 34.696 14.402c19.181 19.181 19.181 50.277 0 69.458l-428.14 428.205z" />
<glyph unicode="&#xe914;" glyph-name="phone" d="M809.283 325.668c-20.964 21.828-46.25 33.499-73.049 33.499-26.583 0-52.085-11.454-73.914-33.283l-68.295-68.078c-5.619 3.026-11.238 5.835-16.641 8.645-7.78 3.89-15.129 7.564-21.396 11.454-63.972 40.631-122.109 93.581-177.869 162.092-27.015 34.147-45.17 62.892-58.353 92.068 17.722 16.209 34.147 33.067 50.14 49.276 6.051 6.051 12.103 12.319 18.154 18.37 45.386 45.386 45.386 104.171 0 149.557l-59.001 59.001c-6.7 6.7-13.616 13.616-20.099 20.532-12.967 13.4-26.583 27.231-40.631 40.199-20.964 20.748-46.034 31.77-72.401 31.77s-51.869-11.022-73.482-31.77c-0.216-0.216-0.216-0.216-0.432-0.432l-73.482-74.13c-27.664-27.664-43.441-61.379-46.899-100.497-5.187-63.108 13.4-121.893 27.664-160.363 35.012-94.445 87.313-181.975 165.333-275.772 94.662-113.032 208.558-202.29 338.664-265.182 49.708-23.557 116.058-51.437 190.188-56.192 4.539-0.216 9.293-0.432 13.616-0.432 49.924 0 91.852 17.938 124.703 53.598 0.216 0.432 0.648 0.648 0.864 1.081 11.238 13.616 24.206 25.935 37.821 39.118 9.293 8.861 18.803 18.154 28.096 27.88 21.396 22.261 32.634 48.195 32.634 74.778 0 26.799-11.454 52.518-33.283 74.13l-118.651 119.083zM886.654 98.092c-0.216 0-0.216-0.216 0 0-8.429-9.077-17.074-17.29-26.367-26.367-14.048-13.4-28.312-27.448-41.712-43.224-21.828-23.341-47.547-34.363-81.262-34.363-3.242 0-6.7 0-9.942 0.216-64.188 4.106-123.838 29.176-168.575 50.573-122.325 59.217-229.738 143.289-318.996 249.837-73.698 88.826-122.974 170.953-155.608 259.131-20.099 53.814-27.448 95.742-24.206 135.293 2.161 25.286 11.887 46.25 29.825 64.188l73.698 73.698c10.59 9.942 21.828 15.345 32.851 15.345 13.616 0 24.638-8.213 31.554-15.129 0.216-0.216 0.432-0.432 0.648-0.648 13.183-12.319 25.719-25.070 38.902-38.686 6.7-6.916 13.616-13.832 20.532-20.964l59.001-59.001c22.909-22.909 22.909-44.089 0-66.998-6.268-6.268-12.319-12.535-18.587-18.587-18.154-18.587-35.444-35.876-54.247-52.734-0.432-0.432-0.864-0.648-1.081-1.081-18.587-18.587-15.129-36.741-11.238-49.060 0.216-0.648 0.432-1.297 0.648-1.945 15.345-37.173 36.957-72.185 69.807-113.896l0.216-0.216c59.65-73.482 122.541-130.754 191.917-174.627 8.861-5.619 17.938-10.158 26.583-14.48 7.78-3.89 15.129-7.564 21.396-11.454 0.864-0.432 1.729-1.081 2.593-1.513 7.348-3.674 14.264-5.403 21.396-5.403 17.938 0 29.176 11.238 32.851 14.912l73.914 73.914c7.348 7.348 19.019 16.209 32.634 16.209 13.4 0 24.422-8.429 31.122-15.777 0.216-0.216 0.216-0.216 0.432-0.432l119.083-119.083c22.261-22.044 22.261-44.737 0.216-67.646zM553.394 716.417c56.624-9.509 108.061-36.309 149.124-77.372s67.646-92.5 77.372-149.124c2.377-14.264 14.696-24.206 28.744-24.206 1.729 0 3.242 0.216 4.971 0.432 15.993 2.593 26.583 17.722 23.99 33.715-11.671 68.511-44.089 130.97-93.581 180.462s-111.951 81.91-180.462 93.581c-15.993 2.593-30.905-7.997-33.715-23.773s7.564-31.122 23.557-33.715zM1022.811 508.292c-19.235 112.816-72.401 215.474-154.095 297.168s-184.352 134.86-297.168 154.095c-15.777 2.81-30.689-7.997-33.499-23.773-2.593-15.993 7.997-30.905 23.99-33.715 100.713-17.074 192.565-64.837 265.614-137.67 73.049-73.049 120.596-164.901 137.67-265.614 2.377-14.264 14.696-24.206 28.744-24.206 1.729 0 3.242 0.216 4.971 0.432 15.777 2.377 26.583 17.506 23.773 33.283z" />
<glyph unicode="&#xe915;" glyph-name="round" d="M515.141 960c-282.699 0-515.141-232.442-515.141-515.141s232.442-515.141 515.141-515.141 515.141 232.442 515.141 515.141-232.442 515.141-515.141 515.141zM515.141 67.926c-207.313 0-376.933 169.62-376.933 376.933s169.62 376.933 376.933 376.933c207.313 0 376.933-169.62 376.933-376.933s-169.62-376.933-376.933-376.933zM640.785 444.859c0-69.391-56.253-125.644-125.644-125.644s-125.644 56.253-125.644 125.644c0 69.391 56.253 125.644 125.644 125.644s125.644-56.253 125.644-125.644z" />
<glyph unicode="&#xe916;" glyph-name="metro" d="M947.313 161.551l-288.705 613.498-153.374-338.326-157.885 338.326-284.194-613.498h-63.154v-40.599h293.216v40.599h-85.709l139.841 297.727 162.396-338.326 148.863 338.326 139.841-297.727h-67.665v-40.599h293.216v40.599z" />
<glyph unicode="&#xe917;" glyph-name="arrow-right-large" d="M704.587 884.844l-56.367-37.578 253.651-366.385h-901.872v-65.761h911.266l-263.046-366.385 56.367-37.578 319.413 432.147z" />
<glyph unicode="&#xe918;" glyph-name="filter" d="M1021.037 902.134c-5.123 10.866-16.060 17.798-28.072 17.798h-961.929c-12.013 0-22.945-6.931-28.072-17.798-5.123-10.866-3.517-23.711 4.126-32.98l369.78-448.498v-413.556c0-10.738 5.549-20.711 14.669-26.372 4.999-3.099 10.672-4.664 16.366-4.664 4.705 0 9.426 1.072 13.78 3.228l207.763 102.975c10.556 5.23 17.235 15.985 17.251 27.766l0.406 310.61 369.8 448.514c7.647 9.265 9.257 22.114 4.134 32.976zM592.141 451.546c-4.573-5.545-7.080-12.509-7.088-19.701l-0.397-302.503-145.713-72.221v374.683c0 7.204-2.504 14.185-7.088 19.743l-335.008 406.319h830.302l-335.008-406.319z" />
<glyph unicode="&#xe919;" glyph-name="inter" d="M664.525 896.563l-22.118-21.811 318.259-321.024-690.227-0.461c-149.197-4.864-269.056-127.386-269.056-277.76 0-153.395 124.774-278.221 278.221-278.221v31.027c-136.346 0-247.245 110.848-247.245 247.142s110.899 247.296 247.194 247.296h680.806l-317.747-309.504 21.606-22.221 355.891 346.726-355.584 358.81z" />
<glyph unicode="&#xe91a;" glyph-name="square" d="M0 960v-1024h1024v1024h-1024zM995.328-35.174h-966.554v966.502h966.554v-966.502zM732.16 668.16h-440.218v-440.166h440.218v440.166zM703.437 256.666h-382.822v382.771h382.874v-382.771z" />
<glyph unicode="&#xe91b;" glyph-name="act-arrow-down" d="M511.949-61.696l-434.637 606.925h247.45v373.146c-0.051 22.989 19.507 41.626 43.469 41.626h287.59c23.962 0 43.469-18.637 43.469-41.626v-373.146h247.398l-434.739-606.925zM139.418 513.331l372.531-520.243 372.634 520.243h-217.139v405.043c0 5.325-5.325 9.728-11.622 9.728h-287.59c-6.4 0-11.622-4.454-11.622-9.728v-405.043h-217.19z" />
<glyph unicode="&#xe91c;" glyph-name="user" d="M1009.050-62.054h-996.864v15.616c0 207.616 131.891 394.957 324.403 466.944-77.363 55.654-124.262 145.766-124.262 242.125 0 164.454 133.837 298.291 298.342 298.291 164.454 0 298.342-133.837 298.342-298.291 0-96.358-46.848-186.522-124.314-242.176 192.614-71.987 324.352-259.328 324.352-466.944v-15.565zM43.622-30.822h934.042c-6.758 198.605-141.875 374.835-333.261 431.923l-35.226 10.547 32 17.971c84.275 47.462 136.602 136.653 136.602 233.062 0 147.302-119.808 267.162-267.162 267.162s-267.162-119.808-267.162-267.162c0-96.358 52.326-185.702 136.602-233.062l32.102-17.971-35.328-10.547c-191.334-57.037-326.451-233.318-333.21-431.923z" />
<glyph unicode="&#xe91d;" glyph-name="dislike" horiz-adv-x="1120" d="M265.664 960h-202.24c-28.352 0-51.424-23.040-51.424-51.392v-574.432c0-28.352 23.072-51.424 51.424-51.424h202.24c28.384 0 51.424 23.104 51.424 51.424v574.432c0.032 28.352-23.040 51.392-51.424 51.392zM271.584 334.144c0-3.264-2.656-5.92-5.92-5.92h-202.24c-3.264 0-5.92 2.656-5.92 5.92v574.464c0 3.264 2.656 5.888 5.92 5.888h202.24c3.264 0 5.92-2.656 5.92-5.888v-574.464zM1093.12 688.768c0 34.56-19.392 64.576-48.064 79.744 28.672 15.168 48.064 45.248 48.064 79.744 0 49.696-40.48 90.144-90.112 90.144h-550.176c-59.968 0-108.768-48.768-108.768-108.704v-438.176c0-60 48.8-108.768 108.768-108.768h13.344c32.736-60 52.064-107.296 53.376-130.816 1.024-18.112-0.096-38.624-1.216-58.336-2.4-43.104-4.672-83.744 12.192-113.216 20.032-35.296 46.944-42.656 65.952-42.656 12.672 0 25.92 3.328 39.296 9.76 56.064 27.104 110.976 119.84 107.552 244.672-0.864 30.528-4.032 60.928-9.472 90.624h269.12c49.664 0 90.112 40.48 90.112 90.208 0 33.504-18.304 62.816-45.632 78.368 27.328 15.52 45.632 44.832 45.632 78.368 0 34.432-19.328 64.352-47.712 79.552 28.448 15.136 47.744 45.12 47.744 79.488zM1003.008 644.16h-75.488v-69.824h75.488c24.64 0 44.704-20 44.704-44.672 0-24.576-20.096-44.64-44.704-44.64h-75.488v-67.456h75.488c24.64 0 44.704-20.064 44.704-44.64 0-24.64-20.096-44.672-44.704-44.672h-325.792l6.56-27.936c8.32-35.488 13.056-72.352 14.048-109.504 3.040-110.816-46.048-185.088-81.92-202.368-7.168-3.456-13.728-5.248-19.424-5.248-6.528 0-16.384 2.048-26.432 19.68-10.176 17.856-8.192 53.568-6.272 88.16 1.184 20.992 2.368 42.752 1.248 63.424-2.304 41.152-36.896 110.912-65.504 162.144l-6.528 11.616h-40.128c-34.88 0-63.264 28.384-63.264 63.264v438.208c0 34.88 28.384 63.2 63.264 63.2h550.144c24.64 0 44.704-20 44.704-44.64s-20.096-44.672-44.704-44.672h-75.488v-70.080h75.488c24.64 0 44.704-20.032 44.704-44.672 0-24.672-20.096-44.672-44.704-44.672z" />
<glyph unicode="&#xe91e;" glyph-name="subway" d="M377.87 231.491c30.413 0 55.162 24.745 55.162 55.158s-24.748 55.162-55.162 55.162-55.158-24.748-55.158-55.162c0-30.413 24.741-55.158 55.158-55.158zM377.87 300.096c7.413 0 13.446-6.034 13.446-13.446s-6.034-13.443-13.446-13.443c-7.413 0-13.446 6.030-13.446 13.443-0.003 7.413 6.030 13.446 13.446 13.446zM644.379 231.491c30.413 0 55.158 24.745 55.158 55.158s-24.745 55.162-55.158 55.162c-30.413 0-55.162-24.748-55.162-55.162s24.748-55.158 55.162-55.158zM644.379 300.096c7.409 0 13.443-6.034 13.443-13.446s-6.034-13.443-13.443-13.443c-7.413 0-13.446 6.030-13.446 13.443s6.034 13.446 13.446 13.446zM1015.049 9.404l-138.512 164.371c34.626 40.994 51.521 93.336 47.725 148.552l-28.993 420.923c-8.233 119.518-112.388 216.75-232.189 216.75h-303.911c-119.794 0-223.956-97.232-232.189-216.747l-28.989-420.93c-3.834-55.672 13.405-108.42 48.621-149.563l-137.657-163.354c-12.209-14.488-10.361-36.13 4.124-48.335 6.437-5.427 14.284-8.075 22.090-8.075 9.761 0 19.463 4.148 26.245 12.198l137.871 163.612c11.798-6.851 24.255-12.491 37.247-16.867l-64.984-125.9c-8.688-16.836-2.086-37.529 14.746-46.214 5.030-2.6 10.409-3.827 15.708-3.827 12.426 0 24.417 6.775 30.51 18.577l19.425 37.629h516.63l19.422-37.629c6.092-11.802 18.084-18.577 30.51-18.577 5.299 0 10.678 1.227 15.708 3.827 16.836 8.688 23.438 29.379 14.746 46.214l-64.719 125.393c13.96 4.579 27.314 10.633 39.902 18.060l138.45-164.299c6.789-8.054 16.484-12.202 26.248-12.202 7.806 0 15.657 2.651 22.087 8.071 14.488 12.209 16.336 33.854 4.13 48.338zM663.080 891.395c33.551 0 65.339-10.843 91.867-29.158l-3.658-14.636h-480.325l-3.662 14.636c26.524 18.315 58.316 29.158 91.867 29.158h303.911zM734.139 778.993l-81.199-324.784h-283.631l-81.196 324.784h446.026zM166.433 317.614l28.989 420.923c1.489 21.614 7.451 42.174 16.88 60.833l96.942-387.786c3.817-15.27 17.536-25.983 33.278-25.983h337.193c15.739 0 29.465 10.712 33.278 25.983l96.952 387.782c9.43-18.656 15.391-39.215 16.874-60.833l28.996-420.923c2.72-39.574-10.161-76.776-36.281-104.751-26.117-27.979-62.343-43.387-102.007-43.387h-412.803c-39.664 0-75.89 15.408-102.010 43.387-26.117 27.979-39.005 65.181-36.281 104.755zM287.344 60.811l20.677 40.053h404.459l20.673-40.053h-445.809z" />
<glyph unicode="&#xe91f;" glyph-name="print" d="M973.472 537.024h-203.040v367.424c0 27.68-22.56 50.24-50.304 50.24h-408.512c-27.712 0-50.272-22.56-50.272-50.24v-367.424h-251.68v-44.48h251.68v-78.208c0-27.744 22.56-50.272 50.272-50.272h408.512c27.744 0 50.304 22.528 50.304 50.272v78.208h203.040c3.168 0 5.728-2.624 5.728-5.76v-415.968c0-3.232-2.56-5.824-5.728-5.824h-194.368v38.944c0 23.904-22.112 42.656-50.336 42.656h-425.856c-28.16 0-50.272-18.752-50.272-42.656v-38.944h-194.336c-3.2 0-5.792 2.592-5.792 5.824v273.504h-44.512v-273.472c0-27.744 22.56-50.272 50.272-50.272h194.368v-33.984c0-23.872 22.112-42.624 50.272-42.624h425.824c28.224 0 50.336 18.752 50.336 42.624v33.984h194.368c27.712 0 50.208 22.528 50.208 50.272v415.936c0.032 27.744-22.464 50.24-50.176 50.24zM725.888 414.336c0-3.232-2.528-5.792-5.76-5.792h-408.512c-3.2 0-5.792 2.56-5.792 5.792v490.112c0 3.168 2.592 5.76 5.792 5.76h408.512c3.232 0 5.76-2.592 5.76-5.76v-490.112zM734.56-10.4c-1.12-0.512-3.104-1.12-5.824-1.12h-425.824c-2.688 0-4.64 0.64-5.76 1.12v111.328c1.152 0.544 3.072 1.216 5.76 1.216h425.824c2.72 0 4.672-0.672 5.824-1.216v-111.328z" />
<glyph unicode="&#xe920;" glyph-name="check" d="M325.818 221.091l-244.364 244.364-81.455-81.455 325.818-325.818 698.182 698.182-81.455 81.455z" />
<glyph unicode="&#xe921;" glyph-name="pyramid-toy" horiz-adv-x="852" d="M633.469 373.749c-9.807 0-19.38-0.856-28.849-2.127-15.592 16.76-35.932 27.189-58.218 29.991 20.055 17.771 33 43.43 33 72.279 0 49.241-37.1 89.558-84.732 95.603 20.003 17.746 32.845 43.326 32.845 72.098 0 53.392-43.43 96.796-96.796 96.796h-38.942c9.262 23.972 14.684 54.222 14.684 86.107 0 65.664-22.727 135.478-64.859 135.478s-64.859-69.789-64.859-135.478c0-31.885 5.422-62.135 14.71-86.107h-38.968c-53.392 0.026-96.822-43.404-96.822-96.77 0-28.772 12.868-54.352 32.845-72.098-47.633-6.045-84.732-46.361-84.732-95.603 0-28.772 12.868-54.378 32.871-72.124-47.659-6.045-84.758-46.361-84.758-95.577 0-28.772 12.868-54.378 32.845-72.098-47.633-6.045-84.732-46.387-84.732-95.629 0-53.366 43.43-96.822 96.822-96.822h349.67c38.423-63.225 107.744-105.643 186.977-105.643 120.664 0 218.862 98.197 218.862 218.913s-98.197 218.81-218.862 218.81zM341.601 934.056c15.852 0 38.916-42.677 38.916-109.535 0-30.847-5.215-59.982-14.425-81.36h-49.008c-9.184 21.378-14.425 50.487-14.425 81.36 0.026 66.857 23.090 109.535 38.942 109.535zM747.284 310.316l-270.386-267.714c-4.384 6.071-8.484 12.375-12.168 18.913-3.736 6.745-7.031 13.698-9.936 20.807-0.441 1.064-0.752 2.179-1.193 3.243-2.309 5.967-4.307 12.064-5.993 18.238-0.519 1.816-0.96 3.684-1.427 5.526-1.401 5.708-2.491 11.441-3.347 17.253-0.285 1.868-0.649 3.736-0.856 5.63-0.908 7.524-1.479 15.099-1.479 22.701 0 9.962 0.96 19.925 2.542 29.783 0.182 1.116 0.337 2.231 0.545 3.347 1.764 9.936 4.255 19.821 7.602 29.55 0.182 0.493 0.363 0.96 0.545 1.453 2.698 7.602 5.837 14.918 9.34 22.026 0.311 0.597 0.571 1.245 0.908 1.868 3.788 7.42 8.069 14.58 12.712 21.352 0.285 0.389 0.571 0.752 0.856 1.142 4.177 5.941 8.743 11.571 13.517 16.993 1.245 1.427 2.517 2.802 3.788 4.177 4.826 5.111 9.833 10.014 15.151 14.58 0.545 0.493 1.064 1.012 1.609 1.479 6.097 5.111 12.557 9.833 19.276 14.165 0.934 0.597 1.946 1.167 2.932 1.764 6.149 3.814 12.505 7.316 19.095 10.429 0.778 0.389 1.583 0.778 2.387 1.142 15.177 6.953 31.392 11.986 48.333 14.814 10.352 1.712 20.963 2.828 31.807 2.828 42.626 0 81.878-14.036 113.841-37.489zM181.606 641.618c0 39.071 31.807 70.852 70.878 70.852h178.234c39.097 0 70.852-31.807 70.852-70.852 0-39.097-31.781-70.878-70.852-70.878h-178.234c-39.071-0.026-70.878 31.781-70.878 70.878zM129.719 473.918c0 39.071 31.807 70.852 70.878 70.852h282.009c39.097 0 70.852-31.807 70.852-70.852 0-39.097-31.781-70.904-70.852-70.904h-282.009c-39.071-0.026-70.878 31.807-70.878 70.904zM77.831 306.217c0 39.071 31.807 70.826 70.878 70.826h385.784c14.010 0 27.448-4.203 38.89-11.856-0.078-0.026-0.156-0.052-0.233-0.078-16.137-4.644-31.522-11-45.92-18.991-0.415-0.233-0.778-0.519-1.193-0.726-6.252-3.554-12.323-7.394-18.187-11.519-1.842-1.297-3.632-2.698-5.448-4.047-4.333-3.269-8.587-6.668-12.661-10.248-2.050-1.764-4.021-3.606-5.993-5.448-3.814-3.606-7.472-7.316-11.052-11.208-1.712-1.842-3.451-3.684-5.085-5.604-4.151-4.826-8.069-9.859-11.778-15.021-0.752-1.064-1.609-2.050-2.335-3.113-9.34-13.517-17.149-28.123-23.297-43.586-0.052-0.104-0.104-0.182-0.13-0.285h-281.36c-39.071 0-70.878 31.781-70.878 70.904zM432.82 67.613h-335.998c-39.071 0-70.878 31.807-70.878 70.878s31.807 70.878 70.878 70.878h324.764c-0.182-0.623-0.208-1.297-0.389-1.92-1.738-7.109-3.165-14.373-4.203-21.741-0.259-1.66-0.545-3.347-0.752-5.007-1.012-8.484-1.66-17.045-1.66-25.788 0-30.873 6.512-60.241 18.083-86.938 0.052-0.13 0.104-0.259 0.156-0.363zM493.32 22.678c0.363 0.285 0.778 0.415 1.116 0.726l272.825 270.152c4.047-3.892 7.887-7.991 11.545-12.22l-273.188-270.541c-4.307 3.814-8.38 7.757-12.297 11.882zM633.469-38.056c-39.668 0-76.586 12.064-107.303 32.689l268.518 265.923c19.977-30.38 31.703-66.65 31.703-105.643 0-106.369-86.548-192.97-192.918-192.97z" />
<glyph unicode="&#xe922;" glyph-name="knowledge" horiz-adv-x="1098" d="M1090.083 669.091l-540.895 290.909-540.895-290.909c-7.661-4.099-10.53-13.652-6.4-21.344 4.13-7.661 13.715-10.467 21.344-6.4l525.951 282.901 526.014-282.901c2.333-1.261 4.918-1.892 7.441-1.892 5.612 0 11.035 3.027 13.872 8.292 4.13 7.693 1.261 17.246-6.432 21.344zM774.487 611.205c-91.274 0-193.362-40.955-225.3-54.827-31.969 13.872-134.026 54.827-225.268 54.827-108.425 0-225.268-57.097-230.186-59.525l-8.765-4.351v-566.812h374.396c8.45-13.809 28.407-36.636 70.623-42.91l19.894-1.639 18.602 1.639c42.185 6.243 62.205 29.1 70.623 42.91h374.333v566.812l-8.733 4.351c-4.95 2.428-121.761 59.525-230.218 59.525zM981.91 527.498v-427.741c-36.509 15.48-118.23 44.36-220.066 44.36-89.414 0-158.302-29.132-196.861-50.413v435.087c33.294 14.251 126.774 50.855 209.536 50.855 84.716 0.032 178.67-39.221 207.392-52.147zM323.919 579.677c82.698 0 176.179-36.604 209.504-50.855v-436.475c-38.023 21.376-108.015 51.769-199.32 51.769-99.755 0-180.025-27.65-217.607-43.351v426.732c28.659 12.927 122.55 52.179 207.423 52.179zM618.045 12.077l-3.563-10.814c-0.126-0.315-11.76-31.181-62.489-33.577l-2.774-0.126-2.711 0.126c-50.445 2.365-62.142 32.537-62.489 33.609l-3.626 10.783h-363.897v54.291c26.042 11.823 110.916 46.252 217.607 46.252 89.792 0 158.239-32.663 190.713-51.832-0.284-3.815 0.662-7.756 3.247-11.003 3.090-3.941 36.699-3.909 39.82 0.032 2.554 3.279 3.531 7.22 3.247 11.035 32.379 19.169 100.575 51.769 190.713 51.769 110.285 0 197.334-36.793 220.066-47.387v-53.156h-363.865z" />
<glyph unicode="&#xe923;" glyph-name="coffee" horiz-adv-x="868" d="M748.818 210.537c0 0.557-0.059 1.084-0.088 1.67 0.82-0.059 1.728-0.469 2.549-0.469 22.177 0 41.777 8.408 58.241 25.019 58.388 58.71 58.241 205.28 58.212 211.491l-0.088 14.56h-118.827v22.793c0 32.431-26.367 58.827-58.798 58.827h-537.151c-32.431 0-58.798-26.367-58.798-58.827v-256.227c0-2.139 0.205-4.219 0.557-6.68-0.322-4.043-0.557-8.057-0.557-12.158 0-58.241 29.531-109.715 74.413-140.242h-168.484v-28.095c0-58.564 62.489-106.2 139.305-106.2h564.28c76.815 0 139.305 47.636 139.305 106.2v28.095h-168.455c44.853 30.527 74.384 82.001 74.384 140.242zM754.091 433.513h84.081c-1.699-46.874-12.422-138.865-49.452-176.101-10.195-10.283-21.562-15.615-34.658-16.289v192.39zM137.401 503.121h570.608v-29.795h-570.608v29.795zM123.367 210.537c0 3.809 0 233.493 0 233.493h596.154c0 0 0-229.655 0-233.493 0-77.343-62.87-140.242-140.213-140.242h-315.728c-77.313 0-140.213 62.929-140.213 140.242zM813.593 40.999c-0.967-41.162-50.947-75.702-110.008-75.702h-564.28c-59.062 0-109.042 34.541-109.979 75.702h784.267zM306.998 626.987c1.348-0.41 2.695-0.586 4.043-0.586 6.357 0 12.246 4.189 14.062 10.605 1.523 5.332 2.666 12.51 3.955 20.947 4.863 32.080 12.187 80.536 62.607 109.715 78.69 45.527 98.846 122.576 91.434 179.47-1.025 8.027-8.408 13.974-16.406 12.656-8.027-1.055-13.681-8.379-12.627-16.435 6.152-47.548-10.869-112-77.108-150.35-62.577-36.21-71.894-97.674-76.903-130.662-1.055-6.973-1.875-12.89-3.135-17.285-2.197-7.734 2.285-15.879 10.078-18.076zM455.853 625.551c-2.227-7.793 2.285-15.908 10.078-18.105 1.318-0.41 2.695-0.586 4.014-0.586 6.387 0 12.246 4.189 14.062 10.605 1.113 3.926 1.963 9.141 2.93 15.322 3.311 21.855 8.32 54.872 42.158 74.472 57.421 33.222 72.128 89.53 66.737 131.131-1.055 7.998-8.32 13.799-16.435 12.656-7.998-1.055-13.681-8.379-12.656-16.435 4.219-32.255-7.383-75.966-52.382-101.981-45.995-26.631-52.792-71.396-56.425-95.419-0.732-4.658-1.23-8.701-2.080-11.66z" />
<glyph unicode="&#xe924;" glyph-name="hospital" horiz-adv-x="1103" d="M979.651 960h-856.325c-68.478 0-124.183-55.706-124.183-124.146v-775.708c0-68.44 55.706-124.146 124.183-124.146h856.325c68.478 0 124.183 55.706 124.183 124.146v775.708c0 68.44-55.743 124.146-124.183 124.146zM1066.598 60.146c0-47.923-38.986-86.91-86.947-86.91h-856.325c-47.923 0-86.947 38.986-86.947 86.91v775.708c0 47.923 38.986 86.91 86.947 86.91h856.325c47.96 0 86.947-38.986 86.947-86.91v-775.708zM661.43 786.218h-219.843v-228.222h-228.296v-219.918h228.296v-228.296h219.843v228.296h228.296v219.918h-228.296v228.222zM852.489 520.76v-145.445h-228.296v-228.296h-145.371v228.296h-228.296v145.445h228.296v228.222h145.371v-228.222h228.296z" />
<glyph unicode="&#xe925;" glyph-name="calendar-01" d="M592.844 421.080v0c-29.799 0-53.896-24.128-53.896-53.923 0-29.74 24.155-53.896 53.896-53.896v0c29.74 0 53.896 24.155 53.896 53.896 0.003 29.795-24.101 53.923-53.896 53.923zM431.156 474.948c29.754 0 53.896 24.142 53.896 53.896 0 29.775-24.142 53.889-53.896 53.889-29.747 0-53.889-24.114-53.889-53.889 0-29.754 24.142-53.896 53.889-53.896zM592.844 582.733v0c-29.799 0-53.896-24.114-53.896-53.889 0-29.754 24.101-53.896 53.896-53.896v0c29.74 0 53.896 24.142 53.896 53.896 0.003 29.775-24.101 53.889-53.896 53.889zM646.743 852.215h-269.476v-107.792h269.476v107.792zM754.535 474.948c29.727 0 53.896 24.142 53.896 53.896 0 29.775-24.114 53.889-53.896 53.889-29.799 0-53.896-24.114-53.896-53.889 0-29.754 24.155-53.896 53.896-53.896zM754.535 313.26c29.727 0 53.896 24.155 53.896 53.896 0 29.795-24.114 53.896-53.896 53.896-29.799 0-53.896-24.101-53.896-53.896 0-29.74 24.155-53.896 53.896-53.896zM431.156 313.26c29.754 0 53.896 24.155 53.896 53.896 0 29.795-24.114 53.923-53.896 53.923-29.775 0-53.889-24.128-53.889-53.923 0-29.74 24.142-53.896 53.889-53.896zM269.476 151.57c29.747 0 53.896 24.169 53.896 53.896 0 29.795-24.149 53.896-53.896 53.896-29.775 0-53.896-24.101-53.896-53.896 0-29.727 24.145-53.896 53.896-53.896zM916.208 852.215h-53.879v-107.792h53.879v-700.629h-808.417v700.625h53.889v107.795h-53.889c-59.529 0-107.792-48.246-107.792-107.795v-700.604c0-59.563 48.263-107.819 107.792-107.819h808.413c59.539 0 107.792 48.259 107.792 107.819v700.604c0.003 59.549-48.253 107.795-107.788 107.795zM269.476 313.26c29.747 0 53.896 24.155 53.896 53.896 0 29.795-24.149 53.923-53.896 53.923-29.775 0-53.896-24.128-53.896-53.923 0-29.74 24.145-53.896 53.896-53.896zM269.476 474.948c29.747 0 53.896 24.142 53.896 53.896 0 29.775-24.149 53.889-53.896 53.889-29.775 0-53.896-24.114-53.896-53.889 0-29.754 24.145-53.896 53.896-53.896zM431.156 151.57c29.754 0 53.896 24.169 53.896 53.896 0 29.795-24.142 53.896-53.896 53.896-29.747 0-53.889-24.101-53.889-53.896 0-29.727 24.142-53.896 53.889-53.896zM269.476 744.42c29.747 0 53.896 24.142 53.896 53.896v107.785c0 29.785-24.121 53.899-53.896 53.899-29.751 0-53.896-24.114-53.896-53.896v-107.785c0-29.758 24.145-53.899 53.896-53.899zM754.535 744.42c29.727 0 53.896 24.142 53.896 53.896v107.785c0 29.785-24.169 53.899-53.896 53.899-29.799 0-53.896-24.114-53.896-53.896v-107.785c0-29.758 24.155-53.899 53.896-53.899z" />
<glyph unicode="&#xe926;" glyph-name="calculator-04" d="M487.442 960h-362.314c-69.081 0-125.127-56.030-125.127-125.11v-362.314h487.425v487.425zM358.672 689.832h-84.441v-84.846h-54.158v84.846h-84.391v53.72h84.407v84.391h54.158v-84.407h84.441v-53.703zM1024 834.89c0 69.081-56.030 125.11-125.11 125.11h-362.297v-487.425h487.408v362.314zM879.28 685.971h-205.657v61.004h205.657v-61.004zM0 61.11c0-69.081 56.047-125.127 125.11-125.127h362.314v487.442h-487.425v-362.314zM152.712 289.698h63.061l32.93-57.008 32.138 57.008h61.24l-64.713-95.957 67.226-100.662h-64.157l-33.925 59.2-34.211-59.2h-62.555l67.226 99.684-64.258 96.935zM536.592-64h362.297c69.081 0 125.11 55.996 125.11 125.127v362.297h-487.408v-487.425zM678.631 257.392h195.675v-47.549h-195.675v47.549zM678.631 173.002h195.675v-47.532h-195.675v47.532z" />
<glyph unicode="&#xe927;" glyph-name="medical-care" d="M459.669 957.364c-239.674-23.96-433.129-217.744-457.053-457.053-30.404-304.141 208.072-564.299 509.819-564.299 17.216 0 34.534 0.858 51.886 2.592 239.676 23.962 433.129 217.744 457.053 457.053 32.35 323.587-238.738 594.001-561.705 561.707zM954.924 402.301c-20.916-209.26-187.982-376.327-397.245-397.245-281.481-28.144-516.711 207.528-488.611 488.613 20.916 209.26 187.982 376.327 397.245 397.245 281.579 28.162 516.703-207.602 488.611-488.613zM801.386 581.549h-155.824v155.826c0 24.55-19.972 44.522-44.522 44.522h-178.086c-24.55 0-44.522-19.972-44.522-44.522v-155.826h-155.826c-24.55 0-44.522-19.972-44.522-44.522v-178.086c0-24.55 19.972-44.522 44.522-44.522h155.826v-155.826c0-24.55 19.972-44.522 44.522-44.522h178.086c24.55 0 44.522 19.972 44.522 44.522v155.826h155.826c24.55 0 44.522 19.972 44.522 44.522v178.086c-0.002 24.55-19.974 44.522-44.524 44.522zM779.126 381.203h-166.956c-18.44 0-33.392-14.95-33.392-33.392v-166.956h-133.564v166.956c0 18.44-14.95 33.392-33.392 33.392h-166.956v133.564h166.956c18.44 0 33.392 14.95 33.392 33.392v166.956h133.564v-166.956c0-18.44 14.95-33.392 33.392-33.392h166.956v-133.564z" />
<glyph unicode="&#xe928;" glyph-name="car" d="M999.22 508.338l-158.782 26.674-156.886 177.134c-5.634 6.363-13.73 10.007-22.232 10.007h-517.131c-10.287 0-19.844-5.321-25.257-14.072l-114.486-184.99c-2.906-4.693-4.446-10.11-4.446-15.629v-198.206c0-16.402 13.299-29.703 29.703-29.703h70.949c13.578-60.419 67.629-105.706 132.093-105.706 64.46 0 118.508 45.289 132.088 105.706h294.339c13.578-60.419 67.626-105.706 132.088-105.706 64.464 0 118.511 45.289 132.093 105.706h70.949c16.402 0 29.703 13.299 29.703 29.703v169.792c-0.002 14.507-10.476 26.888-24.784 29.289zM527.030 662.752h120.924l111.23-125.586h-232.152v125.586h-0.002zM324.147 662.752h143.479v-125.586h-215.244l71.765 125.586zM232.743 233.252c-41.813 0-75.845 33.943-76.002 75.721 0.002 0.097 0.015 0.187 0.015 0.284s-0.012 0.187-0.015 0.284c0.156 41.778 34.19 75.721 76.002 75.721 41.91 0 76.005-34.095 76.005-76.005s-34.095-76.005-76.005-76.005zM791.259 233.252c-41.91 0-76.005 34.095-76.005 76.005s34.095 76.005 76.005 76.005c41.912 0 76.010-34.095 76.010-76.005s-34.102-76.005-76.010-76.005zM964.598 338.96h-41.246c-13.581 60.419-67.629 105.706-132.093 105.706-64.46 0-118.508-45.289-132.088-105.706h-294.34c-13.578 60.419-67.626 105.706-132.088 105.706-64.464 0-118.513-45.289-132.093-105.706h-41.246v160.059l101.331 163.733h94.99l-80.317-140.553c-5.251-9.193-5.215-20.487 0.102-29.646 5.314-9.156 15.104-14.794 25.69-14.794h621.489l141.91-23.843v-114.956z" />
<glyph unicode="&#xe929;" glyph-name="chat" d="M766.804 310.148c-11.676-26.997-29.221-52.6-52.376-76.013l-8.498-8.594-28.58-190.11-147.351 101.295-15.12-2.824c-28.043-5.245-56.952-7.9-85.924-7.9-195.664 0-354.849 118.929-354.849 265.116 0 141.672 149.509 257.744 336.836 264.776-15.612 22.746-29.404 44.853-40.856 65.734-0.963 1.737-1.864 3.494-2.766 5.25-89.556-10.102-172.476-42.153-238.105-92.756-83.327-64.246-129.216-150.546-129.216-243.006 0-92.457 45.89-178.758 129.214-243.003 80.469-62.044 186.918-96.214 299.736-96.214 28.267 0 56.501 2.191 84.151 6.52l138.56-95.248c10.34-7.098 22.43-10.851 34.964-10.851 8.506 0 16.779 1.721 24.588 5.109 19.639 8.522 33.274 26.253 36.48 47.461l27.971 186.079c24.417 26.403 43.583 55.015 57.259 85.199-10.453 3.53-20.602 7.933-30.297 13.219-12.124 6.572-24.068 13.529-35.821 20.762zM1010.571 482.538l-91.542 91.534c-8.661 8.658-20.173 13.427-32.422 13.427-1.552 0-3.087-0.077-4.564-0.23-25.266-2.553-48.938-12.265-68.475-28.093-3.032-2.462-6.899-3.826-10.876-3.826-3.903 0-7.72 1.328-10.746 3.737-56.113 45.171-107.389 96.477-152.457 152.54-5.054 6.29-5.034 15.399 0.039 21.67 15.819 19.537 25.523 43.193 28.062 68.409 1.38 13.75-3.427 27.241-13.197 37.013l-91.542 91.539c-8.658 8.655-20.168 13.421-32.394 13.421-1.485 0-2.987-0.075-4.467-0.221-29.617-2.896-57.566-16.132-78.704-37.268-40.618-40.623-49.599-103.953-21.838-154.009 71.474-130.406 243.38-318.352 407.394-407.25 18.848-10.284 40.222-15.712 61.85-15.712 34.372 0 67.836 13.756 91.818 37.741 21.133 21.13 34.369 49.079 37.271 78.699 1.35 13.69-3.466 27.127-13.208 36.878zM250.71 386.54l-50.235-55.82c-2.047-2.277-3.187-5.233-3.187-8.298v-5.209c0-6.852 5.554-12.406 12.403-12.406h84.848c6.852 0 12.403 5.557 12.403 12.406v3.718c0 6.852-5.554 12.403-12.403 12.403h-53.317l30.405 33.86c16.295 17.001 25.639 35.124 25.639 49.743 0 25.559-19.717 42.734-49.060 42.734-17.070 0-34.731-7.748-47.256-20.724-4.694-4.868-4.628-12.602 0.158-17.385l2.603-2.603c2.357-2.357 5.615-3.682 8.893-3.632 3.33 0.036 6.511 1.405 8.818 3.806 7.128 7.408 17.388 12.010 26.784 12.010 9.363 0 20.527-2.465 20.527-14.204 0-5.59-5.554-17.396-17.753-30.112-0.097-0.091-0.183-0.191-0.271-0.288zM375.476 304.806h3.726c6.849 0 12.403 5.557 12.403 12.406v26.295h8.431c6.852 0 12.403 5.554 12.403 12.403v3.723c0 6.852-5.554 12.403-12.403 12.403h-8.431v29.088c0 6.852-5.557 12.403-12.403 12.403h-3.726c-6.852 0-12.406-5.554-12.406-12.403v-29.088h-25.31l39.721 69.045c2.21 3.839 2.205 8.564-0.014 12.392-2.216 3.837-6.31 6.196-10.738 6.196h-4.276c-4.44 0-8.542-2.371-10.757-6.221l-49.862-86.704c-1.084-1.884-1.654-4.014-1.654-6.185v-4.653c0-6.852 5.554-12.403 12.403-12.403h50.484v-26.295c0.003-6.846 5.56-12.403 12.409-12.403zM448.161 465.225h-3.72c-7.709 0-13.958-6.249-13.958-13.958v-138.054c0-7.706 6.249-13.955 13.958-13.955h3.72c7.709 0 13.958 6.249 13.958 13.955v47.074c0 20.475 9.114 31.058 26.793 31.445 13.709 0 20.096-6.445 20.096-20.281v-58.238c0-7.706 6.249-13.955 13.955-13.955h3.723c7.706 0 13.955 6.249 13.955 13.955v58.238c0 31.534-20.303 51.912-51.981 51.909-9.858-0.18-18.799-2.243-26.538-6v33.91c-0.003 7.709-6.251 13.955-13.961 13.955z" />
<glyph unicode="&#xe92a;" glyph-name="playground" d="M233.74 626.088c-55.236 0-100.174-44.938-100.174-100.174v-66.782c0-18.44 14.95-33.392 33.392-33.392h133.566c18.44 0 33.392 14.95 33.392 33.392v66.782c-0.002 55.236-44.938 100.174-100.176 100.174zM267.13 492.522h-66.782v33.392c0 18.412 14.98 33.392 33.392 33.392s33.392-14.98 33.392-33.392v-33.392zM990.608 136.348c-90.684 0-156.942 50.508-186.492 118.056-59.586 136.22-189.796 227.036-336.638 237.16v234.698c0 8.502-3.352 17.168-9.754 23.584-0.012 0.012-0.020 0.022-0.032 0.034l-200.34 200.34c-13.038 13.040-34.182 13.040-47.222 0l-200.344-200.342c-0.012-0.012-0.020-0.022-0.032-0.034-6.336-6.352-9.754-14.896-9.754-23.582v-756.87c0-18.442 14.95-33.392 33.392-33.392h133.566c18.44 0 33.392 14.95 33.392 33.392v55.652h66.782v-55.652c0-18.44 14.95-33.392 33.392-33.392h133.566c18.44 0 33.392 14.95 33.392 33.392v320.846c23.672-3.322 46.25-10.888 66.782-22.070v-298.776c0-18.44 14.95-33.392 33.392-33.392 18.44 0 33.392 14.95 33.392 33.392v239.324c24.036-34.070 24.696-59.626 66.782-115.216v-124.108c0-18.44 14.95-33.392 33.392-33.392s33.392 14.95 33.392 33.392v55.144c70.138-56.762 156.094-88.536 256-88.536 18.44 0 33.392 14.95 33.392 33.392v133.566c-0.006 18.44-14.956 33.39-33.398 33.39zM233.74 879.384l119.734-119.732h-239.47l119.736 119.732zM267.13 91.826h-66.782v66.782h66.782v-66.782zM267.13 225.392h-66.782v66.782h66.782v-66.782zM400.696 2.784h-66.782v322.782c0 18.44-14.95 33.392-33.392 33.392h-133.566c-18.44 0-33.392-14.95-33.392-33.392v-322.782h-66.782v690.086h333.914c0-20.034 0-656.368 0-690.086zM957.218 3.918c-120.274 9.982-226.504 85.064-275.452 196.966-38.336 87.618-120.778 146.9-214.288 156.648v67.072c120.274-9.982 226.504-85.064 275.452-196.966 38.314-87.568 120.594-146.88 214.288-156.648v-67.072z" />
<glyph unicode="&#xe92b;" glyph-name="coin-stack" d="M297.516 375.257c28.777 0 56.593 1.859 82.914 5.319v288.507c-26.319 3.458-54.137 5.316-82.914 5.316-164.312 0-297.513-60.412-297.513-134.938v-29.264c0-74.523 133.202-134.941 297.513-134.941zM297.516 224.609c28.777 0 56.593 1.859 82.914 5.314v84.567c-26.327-3.458-54.13-5.342-82.914-5.342-143.426 0-263.137 46.034-291.256 107.301-4.095-8.924-6.257-18.165-6.257-27.637v-29.264c0-74.526 133.202-134.938 297.513-134.938zM380.428 157.264v6.573c-26.327-3.458-54.13-5.342-82.914-5.342-143.426 0-263.137 46.034-291.256 107.301-4.095-8.922-6.257-18.162-6.257-27.635v-29.264c0-74.528 133.202-134.941 297.513-134.941 32.859 0 64.464 2.422 94.019 6.884-7.326 14.985-11.104 30.789-11.104 47.161v29.262zM726.489 902.938c-164.312 0-297.513-60.412-297.513-134.938v-29.264c0-74.526 133.202-134.938 297.513-134.938 164.309 0 297.513 60.412 297.513 134.938v29.264c0 74.526-133.204 134.938-297.513 134.938zM726.489 537.687c-143.426 0-263.137 46.032-291.256 107.301-4.095-8.922-6.257-18.162-6.257-27.637v-29.264c0-74.526 133.202-134.938 297.513-134.938 164.309 0 297.513 60.412 297.513 134.938v29.264c0 9.475-2.162 18.716-6.257 27.637-28.119-61.269-147.83-107.301-291.256-107.301zM726.489 387.034c-143.426 0-263.137 46.034-291.256 107.301-4.095-8.922-6.257-18.162-6.257-27.637v-29.264c0-74.528 133.202-134.941 297.513-134.941 164.309 0 297.513 60.412 297.513 134.941v29.264c0 9.475-2.162 18.716-6.257 27.637-28.119-61.269-147.83-107.301-291.256-107.301zM726.489 228.251c-143.426 0-263.137 46.034-291.256 107.301-4.095-8.924-6.257-18.162-6.257-27.635v-29.267c0-74.526 133.202-134.938 297.513-134.938 164.309 0 297.513 60.412 297.513 134.938v29.267c0 9.473-2.162 18.716-6.257 27.635-28.119-61.264-147.83-107.301-291.256-107.301zM726.489 77.601c-143.426 0-263.137 46.032-291.256 107.298-4.095-8.924-6.257-18.167-6.257-27.635v-29.264c0-74.526 133.202-134.938 297.513-134.938 164.309 0 297.513 60.412 297.513 134.938v29.267c0 9.473-2.162 18.716-6.257 27.635-28.119-61.267-147.83-107.301-291.256-107.301z" />
<glyph unicode="&#xe92c;" glyph-name="calculator-03" d="M0 465.655h494.345v494.345h-494.345v-494.345zM141.241 748.138h70.621v70.621c0 19.491 15.819 35.31 35.31 35.31s35.31-15.819 35.31-35.31v-70.621h70.621c19.491 0 35.31-15.819 35.31-35.31s-15.819-35.31-35.31-35.31h-70.621v-70.621c0-19.491-15.819-35.31-35.31-35.31s-35.31 15.819-35.31 35.31v70.621h-70.621c-19.491 0-35.31 15.819-35.31 35.31s15.819 35.31 35.31 35.31zM529.655 960v-494.345h494.345v494.345h-494.345zM882.759 677.517h-211.862c-19.491 0-35.31 15.819-35.31 35.31s15.819 35.31 35.31 35.31h211.862c19.491 0 35.31-15.819 35.31-35.31s-15.819-35.31-35.31-35.31zM529.655-64h494.345v494.345h-494.345v-494.345zM670.897 271.448h211.862c19.491 0 35.31-15.819 35.31-35.31s-15.819-35.31-35.31-35.31h-211.862c-19.491 0-35.31 15.819-35.31 35.31s15.819 35.31 35.31 35.31zM670.897 165.517h211.862c19.491 0 35.31-15.819 35.31-35.31s-15.819-35.31-35.31-35.31h-211.862c-19.491 0-35.31 15.819-35.31 35.31s15.819 35.31 35.31 35.31zM0-64h494.345v494.345h-494.345v-494.345zM133.932 246.484c-13.789 13.789-13.789 36.14 0 49.929 13.771 13.789 36.158 13.789 49.929 0l63.311-63.311 63.311 63.311c13.771 13.789 36.158 13.789 49.929 0 13.789-13.789 13.789-36.14 0-49.929l-63.311-63.311 63.311-63.311c13.789-13.789 13.789-36.14 0-49.929-6.886-6.903-15.925-10.346-24.964-10.346s-18.079 3.443-24.964 10.346l-63.311 63.311-63.311-63.311c-6.886-6.903-15.925-10.346-24.964-10.346s-18.079 3.443-24.964 10.346c-13.789 13.789-13.789 36.14 0 49.929l63.311 63.311-63.311 63.311z" />
<glyph unicode="&#xe92d;" glyph-name="coins" d="M512.006 960c-227.9 0-398.186-90.090-398.186-170.642s170.286-170.642 398.186-170.642c227.896 0 398.178 90.090 398.178 170.642s-170.284 170.642-398.178 170.642zM859.22 122.444c-93.694-46.86-217.006-72.66-347.214-72.66-130.218 0-253.538 25.802-347.236 72.656-18.452 9.232-35.432 19.134-50.952 29.626v-45.42c0-80.552 170.286-170.646 398.186-170.646 227.896 0 398.178 90.094 398.178 170.646v45.422c-15.522-10.49-32.504-20.396-50.962-29.624zM859.22 350.008c-93.694-46.852-217.006-72.656-347.214-72.656-130.218 0-253.538 25.806-347.236 72.656-18.452 9.232-35.432 19.134-50.952 29.626v-45.418c0-80.552 170.286-170.646 398.186-170.646 227.896 0 398.178 90.094 398.178 170.646v45.426c-15.522-10.49-32.504-20.402-50.962-29.634zM859.22 577.574c-93.694-46.844-217.006-72.644-347.214-72.644-130.218 0-253.538 25.802-347.236 72.648-18.452 9.232-35.432 19.138-50.952 29.626v-45.412c0-80.556 170.286-170.654 398.186-170.654 227.896 0 398.178 90.098 398.178 170.654v45.416c-15.522-10.492-32.504-20.402-50.962-29.634z" />
<glyph unicode="&#xe92e;" glyph-name="close" d="M1024 901.486l-58.511 58.514-453.489-453.486-453.486 453.486-58.514-58.514 453.486-453.486-453.486-453.489 58.514-58.511 453.486 453.486 453.489-453.486 58.511 58.511-453.486 453.489z" />
<glyph unicode="&#xe92f;" glyph-name="calculator-02" d="M665.604 396.801c-28.253 0-51.201-22.948-51.201-51.201s22.948-51.201 51.201-51.201c28.292 0 51.201 22.948 51.201 51.201s-22.908 51.201-51.201 51.201zM665.604 550.403c-28.253 0-51.201-22.915-51.201-51.201 0-28.266 22.948-51.201 51.201-51.201 28.292 0 51.201 22.935 51.201 51.201 0 28.286-22.908 51.201-51.201 51.201zM512.002 396.801c-28.26 0-51.201-22.948-51.201-51.201s22.941-51.201 51.201-51.201c28.253 0 51.201 22.948 51.201 51.201s-22.948 51.201-51.201 51.201zM512.002 550.403c-28.26 0-51.201-22.915-51.201-51.201 0-28.266 22.915-51.175 51.201-51.175 28.305 0 51.201 22.935 51.201 51.175 0 28.286-22.948 51.201-51.201 51.201zM358.402 652.798h307.202c28.292 0 51.201 22.941 51.201 51.201s-22.908 51.201-51.201 51.201h-307.202c-28.266 0-51.201-22.941-51.201-51.201s22.935-51.201 51.201-51.201zM358.402 140.82v0c28.286 0 51.201 22.935 51.201 51.175 0 28.305-22.915 51.201-51.201 51.201v0c-28.266 0-51.201-22.895-51.201-51.201 0-28.24 22.935-51.175 51.201-51.175zM819.207 960h-614.407c-56.546 0-102.395-45.823-102.395-102.402v-819.193c0-56.559 45.85-102.402 102.395-102.402h614.407c56.549 0 102.389 45.846 102.389 102.402v819.193c0 56.578-45.84 102.402-102.389 102.402zM819.207 38.405h-614.407v819.193h614.407v-819.193zM512.002 243.195c-28.26 0-51.201-22.895-51.201-51.201 0-28.24 22.915-51.175 51.201-51.175 28.305 0 51.201 22.935 51.201 51.175 0 28.305-22.948 51.201-51.201 51.201zM358.402 294.399v0c28.286 0 51.201 22.948 51.201 51.201s-22.915 51.201-51.201 51.201v0c-28.266 0-51.201-22.948-51.201-51.201s22.935-51.201 51.201-51.201zM358.402 448.002v0c28.286 0 51.201 22.935 51.201 51.201 0 28.286-22.915 51.201-51.201 51.201v0c-28.266 0-51.201-22.915-51.201-51.201 0-28.266 22.935-51.201 51.201-51.201zM665.604 243.195c-28.253 0-51.201-22.895-51.201-51.201 0-28.24 22.948-51.175 51.201-51.175 28.292 0 51.201 22.935 51.201 51.175 0 28.305-22.908 51.201-51.201 51.201z" />
<glyph unicode="&#xe930;" glyph-name="calculator-01" d="M939.642 960h-315.008c-46.516 0-84.36-37.844-84.36-84.352v-315.008c0-46.516 37.844-84.36 84.36-84.36h315.008c46.514 0 84.358 37.844 84.358 84.36v315.008c0 46.508-37.842 84.352-84.358 84.352zM909.868 702.14h-255.47v32h255.47v-32zM399.36 419.727h-315.008c-46.508 0-84.352-37.846-84.352-84.352v-315.017c0-46.516 37.844-84.358 84.352-84.358h315.008c46.516 0 84.358 37.844 84.358 84.358v315.017c0 46.506-37.842 84.352-84.358 84.352zM369.593 97.209h-255.468v32h255.47v-32zM369.593 226.53h-255.468v32h255.47v-32zM399.36 960h-315.008c-46.508 0-84.352-37.844-84.352-84.352v-315.008c0-46.516 37.844-84.36 84.352-84.36h315.008c46.516 0 84.358 37.844 84.358 84.36v315.008c0 46.508-37.842 84.352-84.358 84.352zM369.593 702.14h-111.735v-111.735h-32v111.735h-111.733v32h111.735v111.733h32v-111.735h111.735v-31.998zM939.642 419.727h-315.008c-46.516 0-84.36-37.844-84.36-84.352v-315.017c0-46.516 37.844-84.358 84.36-84.358h315.008c46.514 0 84.358 37.844 84.358 84.358v315.017c0 46.506-37.842 84.352-84.358 84.352zM883.767 98.858l-22.625-22.625-79.008 79.008-79.008-79.008-22.625 22.625 79.008 79.008-79.008 79.008 22.625 22.625 79.008-79.008 79.008 79.008 22.625-22.625-79.008-79.008 79.008-79.008z" />
<glyph unicode="&#xe931;" glyph-name="facebook" d="M767.965 959.787l-132.79 0.213c-149.185 0-245.595-98.913-245.595-252.008v-116.192h-133.514c-11.537 0-20.88-9.353-20.88-20.891v-168.35c0-11.537 9.353-20.88 20.88-20.88h133.514v-424.8c0-11.537 9.343-20.88 20.88-20.88h174.198c11.537 0 20.88 9.353 20.88 20.88v424.8h156.109c11.537 0 20.88 9.343 20.88 20.88l0.064 168.35c0 5.54-2.205 10.845-6.115 14.765s-9.236 6.125-14.776 6.125h-156.163v98.498c0 47.342 11.282 71.375 72.952 71.375l89.453 0.032c11.527 0 20.869 9.353 20.869 20.88v156.322c0 11.516-9.332 20.859-20.848 20.88z" />
<glyph unicode="&#xe932;" glyph-name="phone2" d="M809.283 325.668c-20.964 21.828-46.25 33.499-73.049 33.499-26.583 0-52.085-11.454-73.914-33.283l-68.295-68.078c-5.619 3.026-11.238 5.835-16.641 8.645-7.78 3.89-15.129 7.564-21.396 11.454-63.972 40.631-122.109 93.581-177.869 162.092-27.015 34.147-45.17 62.892-58.353 92.068 17.722 16.209 34.147 33.067 50.14 49.276 6.051 6.051 12.103 12.319 18.154 18.37 45.386 45.386 45.386 104.171 0 149.557l-59.001 59.001c-6.7 6.7-13.616 13.616-20.099 20.532-12.967 13.4-26.583 27.231-40.631 40.199-20.964 20.748-46.034 31.77-72.401 31.77s-51.869-11.022-73.482-31.77c-0.216-0.216-0.216-0.216-0.432-0.432l-73.482-74.13c-27.664-27.664-43.441-61.379-46.899-100.497-5.187-63.108 13.4-121.893 27.664-160.363 35.012-94.445 87.313-181.975 165.333-275.772 94.662-113.032 208.558-202.29 338.664-265.182 49.708-23.557 116.058-51.437 190.188-56.192 4.539-0.216 9.293-0.432 13.616-0.432 49.924 0 91.852 17.938 124.703 53.598 0.216 0.432 0.648 0.648 0.864 1.081 11.238 13.616 24.206 25.935 37.821 39.118 9.293 8.861 18.803 18.154 28.096 27.88 21.396 22.261 32.634 48.195 32.634 74.778 0 26.799-11.454 52.518-33.283 74.13l-118.651 119.083zM886.654 98.092c-0.216 0-0.216-0.216 0 0-8.429-9.077-17.074-17.29-26.367-26.367-14.048-13.4-28.312-27.448-41.712-43.224-21.828-23.341-47.547-34.363-81.262-34.363-3.242 0-6.7 0-9.942 0.216-64.188 4.106-123.838 29.176-168.575 50.573-122.325 59.217-229.738 143.289-318.996 249.837-73.698 88.826-122.974 170.953-155.608 259.131-20.099 53.814-27.448 95.742-24.206 135.293 2.161 25.286 11.887 46.25 29.825 64.188l73.698 73.698c10.59 9.942 21.828 15.345 32.851 15.345 13.616 0 24.638-8.213 31.554-15.129 0.216-0.216 0.432-0.432 0.648-0.648 13.183-12.319 25.719-25.070 38.902-38.686 6.7-6.916 13.616-13.832 20.532-20.964l59.001-59.001c22.909-22.909 22.909-44.089 0-66.998-6.268-6.268-12.319-12.535-18.587-18.587-18.154-18.587-35.444-35.876-54.247-52.734-0.432-0.432-0.864-0.648-1.081-1.081-18.587-18.587-15.129-36.741-11.238-49.060 0.216-0.648 0.432-1.297 0.648-1.945 15.345-37.173 36.957-72.185 69.807-113.896l0.216-0.216c59.65-73.482 122.541-130.754 191.917-174.627 8.861-5.619 17.938-10.158 26.583-14.48 7.78-3.89 15.129-7.564 21.396-11.454 0.864-0.432 1.729-1.081 2.593-1.513 7.348-3.674 14.264-5.403 21.396-5.403 17.938 0 29.176 11.238 32.851 14.912l73.914 73.914c7.348 7.348 19.019 16.209 32.634 16.209 13.4 0 24.422-8.429 31.122-15.777 0.216-0.216 0.216-0.216 0.432-0.432l119.083-119.083c22.261-22.044 22.261-44.737 0.216-67.646zM553.394 716.417c56.624-9.509 108.061-36.309 149.124-77.372s67.646-92.5 77.372-149.124c2.377-14.264 14.696-24.206 28.744-24.206 1.729 0 3.242 0.216 4.971 0.432 15.993 2.593 26.583 17.722 23.99 33.715-11.671 68.511-44.089 130.97-93.581 180.462s-111.951 81.91-180.462 93.581c-15.993 2.593-30.905-7.997-33.715-23.773s7.564-31.122 23.557-33.715zM1022.811 508.292c-19.235 112.816-72.401 215.474-154.095 297.168s-184.352 134.86-297.168 154.095c-15.777 2.81-30.689-7.997-33.499-23.773-2.593-15.993 7.997-30.905 23.99-33.715 100.713-17.074 192.565-64.837 265.614-137.67 73.049-73.049 120.596-164.901 137.67-265.614 2.377-14.264 14.696-24.206 28.744-24.206 1.729 0 3.242 0.216 4.971 0.432 15.777 2.377 26.583 17.506 23.773 33.283z" />
<glyph unicode="&#xe933;" glyph-name="left-arrow-slim" d="M703.305-2.878c6.35-6.35 14.288-9.526 23.020-9.526s16.67 3.175 23.020 9.526c12.701 12.701 12.701 33.34 0 46.040l-404.837 404.837 404.837 404.837c12.701 12.701 12.701 33.34 0 46.040s-33.34 12.701-46.040 0l-428.651-427.857c-12.701-12.701-12.701-33.34 0-46.040l428.651-427.857z" />
<glyph unicode="&#xe934;" glyph-name="right-arrow-slim" d="M320.695-2.878c-6.35-6.35-14.288-9.526-23.020-9.526s-16.67 3.175-23.020 9.526c-12.701 12.701-12.701 33.34 0 46.040l404.837 404.837-404.837 404.837c-12.701 12.701-12.701 33.34 0 46.040s33.34 12.701 46.040 0l427.857-427.857c12.701-12.701 12.701-33.34 0-46.040l-427.857-427.857z" />
<glyph unicode="&#xe935;" glyph-name="car2" d="M946.454 465.553h-9.416l-98.504 299.064c-12.455 42.741-31.321 72.648-70.066 72.648h-112.017c1.569 4.775 2.694 9.761 2.694 14.959 0 31.844-31.199 57.689-69.654 57.689h-159.855c-38.411 0-69.599-25.845-69.599-57.689 0-5.187 1.102-10.184 2.671-14.959h-112.083c-38.667 0-59.103-32.056-70.055-72.648l-98.504-299.064h-9.361c-40.147 0-72.704-32.568-72.704-72.704v-203.976c0-40.125 32.557-72.637 72.704-72.637h28.238v-73.372c0-32.968 45.178-59.615 100.964-59.615 55.741 0 100.942 26.657 100.942 59.615v73.372h413.429v-73.372c0-32.968 45.178-59.615 100.953-59.615 55.763 0 100.931 26.657 100.931 59.615v73.372h28.282c40.114 0 72.648 32.512 72.648 72.637v203.976c0.011 40.136-32.534 72.704-72.637 72.704zM237.39 713.016c10.741 39.891 25.956 60.149 57.956 60.149h428.455c32.067 0 49.864-26.669 57.956-60.149l81.564-247.463h-707.484l81.553 247.463zM178.432 380.071c46.013 0 83.311-37.343 83.311-83.334 0-46.047-37.298-83.334-83.311-83.334s-83.334 37.298-83.334 83.334c-0.011 45.991 37.309 83.334 83.334 83.334zM840.737 213.404c-46.002 0-83.3 37.298-83.3 83.334 0 45.991 37.309 83.334 83.3 83.334 46.047 0 83.322-37.343 83.322-83.334 0-46.047-37.287-83.334-83.322-83.334z" />
<glyph unicode="&#xe936;" glyph-name="circular-arrow" d="M436.747 723.194c5.757 0 11.401-0.182 16.828-0.671 91.523-7.441 146.239-36.227 184.149-73.66 37.877-37.513 59.176-85.697 77.039-133.655l42.61 10.115-34.805 320.671-6.997 13.881c-58.63 53.316-156.979 94.071-254.441 94.436-26.396 0-52.759-3.095-78.097-10.16-224.074-61.838-354.213-262.064-353.405-525.221 0-78.928 16.35-153.486 45.318-219.5l-74.945 10.638 208.282-179.496-60.211 294.411-19.502-92.319c-13.642 39.31-21.049 82.284-21.049 126.942 0 19.581 1.388 39.378 4.255 59.335 27.932 201.444 200.966 304.481 324.972 304.253zM1021.19 687.343l-207.269 181.032 29.298-147.433 29.264-147.399 20.184 93.059c13.87-39.526 21.345-82.796 21.299-127.761 0.046-19.502-1.388-39.367-4.21-59.324-27.898-201.375-200.977-304.412-324.983-304.265-5.791 0-11.401 0.228-16.896 0.66-91.409 7.475-146.193 36.238-184.070 73.682-37.888 37.547-59.153 85.686-77.084 133.678l-42.564-10.115 34.805-320.66 7.009-13.915c58.63-53.271 156.968-94.049 254.396-94.413 26.396 0 52.77 3.106 78.131 10.16 224.074 61.827 354.213 262.053 353.382 525.266 0 78.655-16.213 152.974-45.033 218.908l74.342-11.162z" />
<glyph unicode="&#xe937;" glyph-name="envelope" d="M637.508 416.586l386.321-247.74c1.183 4.961 1.855 10.069 1.855 15.36v532.514l-388.176-300.134zM1008.026 762.004c-12.22 13.266-29.616 21.641-48.902 21.641h-892.518c-16.6 0-31.767-6.178-43.452-16.327l491.201-387.049 493.67 381.736zM514.139 321.126l-87.905 69.257-401.579-257.855c11.503-9.296 26.066-14.939 41.95-14.939h892.518c14.416 0 27.75 4.688 38.684 12.584l-399.44 256.159-84.23-65.206zM0.649 725.675c-0.387-2.833-0.649-5.712-0.649-8.636v-532.844c0-3.891 0.421-7.714 1.058-11.423l386.401 248.127-386.81 304.777z" />
<glyph unicode="&#xe938;" glyph-name="family" d="M501.717 318.879c-20.157 25.46-46.802 45.444-77.317 57.667 21.536 20.351 34.557 49.68 32.865 82.082-2.716 53.755-46.468 97.323-100.201 99.878-60.567 2.706-110.398-45.455-110.398-105.321 0-30.849 13.204-58.487 34.245-77.835-67.821-28.489-115.464-95.631-115.464-173.832h210.599c16.47 59.176 64.943 105.159 125.672 117.361zM591.861 145.273c15.748 15.004 25.686 36.066 25.686 59.672 0 45.228-36.605 81.995-81.963 81.995s-81.898-36.907-81.898-82.136c0-23.918 10.283-45.433 26.646-60.427-52.785-22.237-89.789-74.342-89.789-135.233h293.209c0 61.677-37.974 114.354-91.891 136.127zM779.167 376.708c20.372 19.154 33.070 46.468 33.070 76.649 0 58.152-47.158 105.321-105.31 105.321-58.206 0-105.321-47.158-105.321-105.321 0-30.839 13.258-58.54 34.234-77.856-28.985-12.213-54.218-31.378-73.771-55.609 63.111-10.531 114.149-57.322 131.104-118.213h204.186c0.011 79.204-48.829 147.046-118.191 175.029zM512.711 889.937l-0.711-0.582-0.701 0.582-264.947-147.672c0.032 0.862-0.129 1.606-0.42 2.296v71.303h-130.070v-146.357l-115.863-64.566 106.884-89.551 405.116 225.797 405.116-225.797 106.884 89.551-511.289 284.995z" />
<glyph unicode="&#xe939;" glyph-name="free" d="M831.327 414.921c-60.865-0.069-114.826-29.029-149.308-73.809-65.26-18.524-143.314-30.985-236.061-31.732-5.385 0-11.183 0-17.339-0.115-0.483 0-0.92 0-1.404 0-198.276 0-326.219 46.034-401.155 87.454-15.21-15.003-26.612-27.844-25.899-41.696-1.059-20.020 13.945-43.698 43.871-66.238 9.043-5.189 18.777-10.493 29.984-15.924 69.287-33.424 181.398-67.998 350.956-67.998 5.385 0 11.322 0.104 17.224 0 78.422 1.507 144.775 10.884 200.727 24.76-0.012-1.197-0.173-2.359-0.173-3.544 0-19.076 2.899-37.462 8.18-54.824-59.427-14.543-128.38-24.116-208.62-24.772-5.511 0-11.183 0-17.339 0-0.633 0-1.22 0-1.852 0-200.083 0-328.393 46.897-402.95 88.605-12.184-12.564-20.63-23.794-19.997-35.828-1.737-32.699 38.993-75.304 118.749-106.404 78.388-31.33 189.359-51.165 312.136-51.165 106.818 0 203.788 15.521 279 40.201 32.791-27.567 75.074-44.262 121.281-44.262 104.172 0 188.554 84.428 188.554 188.451-0.012 104.298-84.394 188.727-188.566 188.842zM831.327 385.697c38.785-0.092 74.257-13.979 101.859-36.979l-101.836-101.848-101.825 101.836c27.602 23.011 63.074 36.899 101.802 36.991zM708.873 124.393c-22.965 27.579-36.852 63.005-36.945 101.698 0.092 38.797 13.991 74.326 36.991 101.963l101.779-101.836-101.825-101.825zM831.327 66.899c-38.705 0.046-74.142 13.876-101.756 36.829l101.779 101.848 101.79-101.859c-27.59-22.942-63.051-36.772-101.813-36.818zM953.827 124.381l-101.825 101.848 101.79 101.848c23.011-27.636 36.887-63.166 36.933-101.974-0.046-38.705-13.91-74.131-36.899-101.721zM62.487 443.57c4.936-2.635 9.699-5.258 15.141-7.881 17.281-8.33 37.255-16.706 60.105-24.645 0.15-0.069 0.345-0.069 0.495-0.184 68.723-23.725 163.449-43.112 290.39-43.112 5.385 0 11.299 0.115 17.224 0 211.634 4.038 335.044 65.248 403.617 117.518 8.445 11.356 12.84 22.252 12.104 31.825 1.197 15.866-11.529 24.933-35.391 44.159-20.181-13.692-47.553-25.842-79.055-36.404-76.34-30.053-174.839-52.822-300.86-53.846-5.787 0-11.552-0.173-17.5-0.173-0.46 0-0.92 0-1.369 0-195.423 0-322.399 44.665-397.795 85.625-19.652-15.797-30.524-24.979-29.523-39.372-1.507-21.193 19.882-48.761 62.418-73.509zM79.607 596.457c69.494-33.32 181.087-67.147 349.149-67.273 5.684 0 11.448 0.127 17.086 0.127 199.024 3.762 320.316 58.253 391.122 108.164 16.718 17.983 25.381 36.059 24.703 52.5 1.484 36.001-39.591 80.275-119.118 113.020-78.158 32.745-189.003 53.455-311.503 53.455-122.696 0-233.541-20.71-311.883-53.455-79.527-32.756-120.429-77.019-119.095-113.020-1.082-29.27 26.359-63.902 79.538-93.518z" />
<glyph unicode="&#xe93a;" glyph-name="house-sale" d="M678.834 322.649h-0.69c-31.733 0-45.846-36.697-45.846-82.543-0.69-48.017 15.505-82.577 46.536-82.577 30.375 0 45.212 31.087 45.212 82.577 0 46.536-12.032 82.543-45.212 82.543zM347.915 513.224h-0.757c-31.032 0-45.846-36.686-45.846-83.278 0-47.983 16.217-82.521 47.338-82.521 30.275 0 45.089 31.021 45.089 83.222 0.011 46.57-12.666 82.577-45.824 82.577zM1003.064 557.078l-402.632 347.091c-33.703 33.336-60.115 50.009-85.226 50.243v0c-0.401 0.045-0.79 0-1.191 0s-0.835 0.045-1.247 0v0c-25.099-0.234-51.501-16.907-85.215-50.243l-114.599-98.771v82.12h-129.614v-193.859l-158.408-136.582c-45.145-41.717-26.346-95.51 35.15-95.51h74.385v-514.605h767.722v514.605h65.714c61.507 0 80.351 53.805 35.161 95.51zM221.629 427.821c0 81.875 50.065 143.983 128.367 143.983h0.746c78.314 0 122.758-57.867 122.758-136.225 0-95.9-60.661-146.788-126.976-146.788-69.91-0.011-124.895 52.936-124.895 139.030zM351.388 97.536l263.958 473.567h57.177l-263.257-473.567h-57.878zM676.753 98.961c-69.153 0-124.193 52.246-124.939 138.374 0 81.853 50.154 143.905 128.467 143.905h0.701c78.303 0 122.791-57.889 122.791-136.147 0.011-96.022-60.683-146.131-127.021-146.131z" />
<glyph unicode="&#xe93b;" glyph-name="key" d="M409.994 384.377c18.049-18.004 50.514-6.302 53 19.040 11.185-4.31 22.629-7.708 34.355-10.195 0.349 0.641 0.574 1.317 0.934 1.924-80.221 158.416 15.945 357.275 190.093 391.708-175.127 145.284-436.685-45.765-353.066-256.686-26.703-2.926-36.751-37.348-16.935-54.835l-256.484-258.307 0.315-89.651 89.606 0.371 18.432 44.831c10.848 1.44 46.845 2.926 43.593 21.391-2.284 13.008-28.278 24.25-21.797 38.788 13.076 29.313 68.135-47.824 60.664 29.741 13.897 3.049 63.072 11.5 57.817 33.837-5.39 22.854-29.426 43.548 10.769 46.991 20.806 1.789 36.774-6.504 51.943 8.395 11.669 11.467 23.338 22.911 35.007 34.377l1.755-1.722zM946.941 612.853c-2.746-3.151-5.548-6.234-8.451-9.205l-0.169-0.18-0.236-0.214c-43.841-43.548-101.421-76.609-131.86-92.385l-0.844-0.506-0.945-0.495-0.495-0.225c-51.605-25.915-114.35 21.763-103.098 78.533 11.332 57.119 97.651 79.501 135.393 117.4l0.225 0.169c2.903 2.881 6.167 7.449 9.396 12.986-74.977 38.901-167.835 30.799-236.364-17.971-70.847-50.424-91.113-125.862-91.113-207.985 2.476-21.301 7.989-42.142 16.339-61.89 0-0.045 0-0.045 0-0.045 4.512-10.69 13.593-35.75 23.631-42.434-25.24-9.25-26.793-44.887-3.511-57.31l-188.258-311.532 21.448-86.984 86.984 21.448 7.337 47.959c9.396 3.623 41.163 12.997 37.708 28.008-2.476 10.758-35.446 25.454-30.202 36.425 9.025 18.893 51.054-14.842 57.884 8.282 2.554 8.631-1.362 19.276-4.107 27.31-4.321 12.693 12.806 14.325 22.438 20.548 26.028 16.812 28.863 26.59 9.824 49.726-18.466 22.404 6.212 30.18 26.489 35.165 24.88 6.11 26.579 3.083 39.441 23.721 7.145 11.478 14.302 22.944 21.436 34.422l2.082-1.26c21.684-13.278 50.592 5.806 47.025 30.945 172.628-22.697 307.245 159.294 234.575 317.575zM584.862 843.467c4.94-0.439 64.456 38.383 81.729 46.024 44.55 19.692 96.819 32.205 144.328 15.383 86.849-30.743 122.621-134.538 75.101-212.688-23.98-39.925-72.108-67.775-111.909-89.527-40.375-22.055-22.978-66.346 19.152-43.469 91.665 49.771 180.809 125.862 160.532 241.934-18.578 106.136-121.788 171.278-225.393 156.897-54.407-7.539-106.417-31.215-150.742-63.173-24.261-19.816-33.893-51.38 7.202-51.38z" />
<glyph unicode="&#xe93c;" glyph-name="money-2" d="M74.061 438.694c5.85-3.11 11.494-6.221 17.946-9.344 20.493-9.856 44.147-19.814 71.232-29.21 0.166-0.051 0.397-0.051 0.576-0.192 81.434-28.109 193.702-51.11 344.141-51.11 6.387 0 13.376 0.141 20.416 0 250.816 4.813 396.992 77.35 478.387 139.264 9.933 13.453 15.142 26.381 14.336 37.722 1.344 18.803-13.798 29.555-41.933 52.339-23.987-16.23-56.448-30.63-93.76-43.136-90.496-35.635-207.206-62.618-356.544-63.821-6.874 0-13.683-0.218-20.723-0.218-0.538 0-1.075 0-1.613 0-231.603 0-382.080 52.941-471.424 101.491-23.296-18.726-36.173-29.606-34.982-46.669-1.818-25.114 23.539-57.766 73.946-87.117zM94.336 619.891c82.355-39.488 214.605-79.578 413.786-79.718 6.733 0 13.568 0.141 20.25 0.141 235.84 4.467 379.533 69.030 463.514 128.192 19.814 21.299 30.016 42.726 29.21 62.208 1.818 42.662-46.861 95.13-141.107 133.939-92.608 38.81-224 63.347-369.165 63.347-145.395 0-276.762-24.538-369.587-63.347-94.259-38.81-142.733-91.277-141.146-133.939-1.28-34.688 31.232-75.725 94.246-110.822zM979.162 383.462c-23.923-16.256-56.371-30.643-93.696-43.149-90.534-35.635-207.232-62.618-356.57-63.821-6.874 0-13.696-0.192-20.736-0.192-0.538 0-1.075 0-1.613 0-231.603 0-382.067 52.915-471.424 101.478-23.309-18.739-36.186-29.619-35.008-46.643-1.792-25.139 23.565-57.805 73.971-87.155 5.85-3.123 11.494-6.234 17.946-9.331 20.493-9.882 44.147-19.814 71.232-29.21 0.166-0.051 0.41-0.051 0.576-0.192 81.434-28.147 193.702-51.11 344.141-51.11 6.387 0 13.376 0.141 20.403 0 250.816 4.774 397.030 77.35 478.362 139.277 9.997 13.466 15.142 26.368 14.336 37.722 1.357 18.79-13.722 29.517-41.92 52.326zM979.162 193.062c-23.923-16.23-56.371-30.618-93.696-43.123-90.534-35.622-207.232-62.618-356.57-63.821-6.874 0-13.696-0.218-20.736-0.218-0.538 0-1.075 0-1.613 0-231.603 0-382.067 52.941-471.424 101.491-23.296-18.726-36.173-29.606-34.995-46.669-1.792-25.139 23.565-57.805 73.971-87.142 5.85-3.11 11.494-6.221 17.946-9.331 20.493-9.869 44.147-19.814 71.232-29.21 0.166-0.077 0.41-0.077 0.576-0.218 81.434-28.109 193.702-51.11 344.141-51.11 6.387 0 13.376 0.141 20.403 0 250.816 4.813 397.030 77.35 478.362 139.302 9.997 13.44 15.142 26.368 14.336 37.696 1.344 18.803-13.734 29.568-41.933 52.352z" />
<glyph unicode="&#xe93d;" glyph-name="money" d="M702.927 647.363c64.341 0 130.206 9.752 189.818 34.694 41.192 17.225 86.126 44.203 104.814 86.894 43.093 98.45-93.708 158.415-165.949 176.043-66.219 16.152-136.192 18.907-203.678 9.984-57.356-7.582-116.504-23.771-164.925-56.491-33.109-22.37-64.293-56.759-61.989-99.365 2.328-43.154 37.388-75.874 72.058-96.89 67.791-41.094 151.686-54.869 229.851-54.869zM605.989 391.899c-34.060 67.011-126.342 96.731-194.938 108.203 0.122-0.232 0.293-0.354 0.414-0.573-69.851 12.276-141.653 12.203-211.176-2.45-52.651-11.106-107.715-30.562-148.322-67.17-29.221-26.356-48.542-64.378-35.657-103.863 14.092-43.154 56.649-71.717 95.829-89.954 96.926-45.117 215.515-50.359 318.866-27.916 0.061 0 0.061-0.061 0.061-0.061 0.11 0.061 0.232 0.122 0.414 0.122 24.381 5.022 48.64 13.105 71.765 22.284-0.293 0.122-0.536 0.366-0.89 0.488 25.466 10.545 47.957 22.882 65.682 37.205 0.061 0 0.183-0.061 0.244-0.122 20.504 16.652 39.875 39.656 45.702 66.072-0.463 0.122-0.817 0.244-1.292 0.28 4.669 21.297 2.377 38.046-7.68 57.637 0.329-0.061 0.622-0.183 0.975-0.183zM702.927 196.035c-11.386 0-22.357 0.585-33.378 1.17-2.597-15.006-7.387-29.574-14.665-43.435 5.51-10.557 9.74-21.589 12.666-32.841 81.432-5.766 169.374 5.425 243.261 41.63 47.909 23.491 103.302 67.438 92.733 127.586-62.549-57.502-171.471-94.11-300.617-94.11zM702.927 591.884c-129.146 0-237.995 36.608-300.556 94.037-8.253-44.044 22.089-81.737 55.857-105.826 46.97-33.512 105.314-50.334 161.768-58.661 67.511-9.947 137.655-7.973 204.251 7.144 51.651 11.727 105.911 31.781 144.798 69.096 24.113 23.125 40.46 54.162 34.511 88.235-62.562-57.405-171.483-94.025-300.629-94.025zM702.927 459.861c-29.172 0-57.027 2.097-83.858 5.62 24.649-23.82 41.326-51.163 48.36-80.847 81.92-4.925 168.96 5.193 243.383 41.691 47.933 23.515 103.266 67.474 92.733 127.646-62.549-57.502-171.471-94.11-300.617-94.11zM702.927 327.948c-11.325 0-22.357 0.585-33.378 1.158-2.597-15.006-7.387-29.562-14.665-43.422 5.51-10.679 9.74-21.589 12.666-32.975 81.859-4.949 168.887 5.218 243.261 41.691 47.909 23.515 103.302 67.499 92.733 127.659-62.549-57.502-171.471-94.11-300.617-94.11zM314.112 8.607c-129.146 0-237.995 36.632-300.544 94.013-8.241-44.020 22.114-81.713 55.857-105.789 46.97-33.499 105.301-50.334 161.768-58.661 67.499-9.947 137.643-7.973 204.227 7.144 51.639 11.727 105.874 31.781 144.762 69.096 24.027 23.064 40.509 54.187 34.572 88.198-62.622-57.368-171.483-94.001-300.642-94.001zM579.925 208.36c-90.673-59.307-207.787-73.838-313.783-66.109-88.6 6.449-185.466 30.72-252.648 92.27-7.375-42.094 19.285-78.226 51.298-102.376 43.386-32.756 97.829-50.054 150.747-59.514 64.866-11.569 132.437-11.581 197.278 0.098 54.674 9.862 111.384 28.233 155.209 63.573 0.122 0 0.244-0.061 0.354-0.122 20.382 16.506 39.973 39.79 45.58 66.085-0.463 0-0.878 0.122-1.292 0.244 2.475 11.288 4.096 20.431 2.060 32.024-10.264-9.399-22.187-17.957-34.804-26.173z" />
<glyph unicode="&#xe93e;" glyph-name="discount" d="M378.069 626.577c-24.616 0-44.644-20.028-44.644-44.644s20.028-44.644 44.644-44.644 44.644 20.030 44.644 44.644c0 24.616-20.028 44.644-44.644 44.644zM645.933 358.713c-24.616 0-44.644-20.028-44.644-44.644s20.028-44.644 44.644-44.644c24.616 0 44.644 20.028 44.644 44.644s-20.030 44.644-44.644 44.644zM1014.306 471.561l-86.894 87.75 31.378 119.442c4.666 17.762-5.846 35.968-23.56 40.806l-119.128 32.546-32.546 119.128c-4.84 17.714-23.040 28.228-40.806 23.56l-119.44-31.38-87.752 86.896c-13.050 12.922-34.072 12.922-47.12 0l-87.75-86.896-119.442 31.378c-17.766 4.668-35.966-5.846-40.806-23.56l-32.546-119.128-119.128-32.546c-17.714-4.84-28.226-23.046-23.56-40.806l31.378-119.442-86.894-87.748c-12.922-13.050-12.922-34.072 0-47.12l86.896-87.75-31.378-119.442c-4.666-17.762 5.846-35.968 23.56-40.806l119.128-32.546 32.546-119.128c4.84-17.714 23.038-28.228 40.806-23.56l119.442 31.378 87.75-86.896c6.524-6.462 15.042-9.692 23.56-9.692s17.036 3.23 23.56 9.692l87.75 86.896 119.442-31.378c17.764-4.662 35.966 5.846 40.806 23.56l32.546 119.128 119.128 32.546c17.714 4.84 28.226 23.046 23.56 40.806l-31.378 119.442 86.894 87.75c12.92 13.048 12.92 34.070-0.002 47.12zM266.459 581.933c0 61.542 50.068 111.61 111.61 111.61s111.61-50.068 111.61-111.61-50.068-111.61-111.61-111.61-111.61 50.068-111.61 111.61zM379.421 268.073c-6.538-6.538-15.108-9.808-23.674-9.808-8.568 0-17.138 3.268-23.674 9.808-13.076 13.076-13.076 34.276 0 47.352l312.505 312.505c13.074 13.076 34.276 13.076 47.352 0s13.076-34.276 0-47.352l-312.509-312.505zM645.933 202.459c-61.542 0-111.61 50.068-111.61 111.61s50.068 111.61 111.61 111.61c61.542 0 111.61-50.068 111.61-111.61s-50.068-111.61-111.61-111.61z" />
<glyph unicode="&#xe93f;" glyph-name="diaper" d="M170.666 874.658c23.552 0 42.666 19.114 42.666 42.666s-19.114 42.666-42.666 42.666-42.666-19.114-42.666-42.666 19.114-42.666 42.666-42.666zM341.334 746.658c23.552 0 42.666 19.114 42.666 42.666s-19.114 42.666-42.666 42.666-42.666-19.114-42.666-42.666 19.114-42.666 42.666-42.666zM981.334 533.324h-0.006c-0.116 70.74-57.44 128-128.208 128h-682.24c-70.768 0-128.092-57.26-128.208-128h-0.006c-23.564 0-42.666-19.102-42.666-42.666s19.102-42.666 42.666-42.666v-28.032c0-252.404 191.376-466.968 438.162-482.94 271.952-17.602 500.506 197.438 500.506 468.306v42.666c23.564 0 42.666 19.102 42.666 42.666s-19.102 42.666-42.666 42.666zM373.236 48.198c-97.038 39.178-175.136 119.038-215.434 219.312 17.91 6.458 36.542 9.812 55.53 9.812 94.238 0 170.666-76.428 170.666-170.666 0.002-20.080-3.688-39.736-10.762-58.458zM650.942 47.7c-7.2 18.878-10.958 38.7-10.958 58.944 0 94.266 76.412 170.666 170.666 170.666 20.256 0 40.072-3.746 58.912-10.92-38.912-100.11-118.522-179.748-218.62-218.69zM896 405.324c0-19.146-1.426-37.94-4.12-56.31-25.982 8.914-53.286 13.63-81.23 13.63-141.38 0-256-114.604-256-256 0-27.914 4.718-55.192 13.634-81.172-26.552-3.912-53.964-5.11-81.944-3.3-10.334 0.668-20.544 1.794-30.632 3.308 8.91 25.974 13.626 53.256 13.626 81.174 0 141.366-114.634 256-256 256-27.212 0-53.81-4.526-79.24-13.082-3.99 22.914-6.094 46.436-6.094 70.386v28.032c23.564 0 42.666 19.102 42.666 42.666 0 23.56-19.096 42.66-42.656 42.666 0.116 23.612 19.23 42.668 42.87 42.668h682.24c23.638 0 42.754-19.056 42.87-42.668-23.558-0.006-42.656-19.106-42.656-42.666 0-23.564 19.102-42.666 42.666-42.666v-42.666zM640 789.324c0-23.564 19.102-42.666 42.666-42.666s42.666 19.102 42.666 42.666c23.564 0 42.666 19.102 42.666 42.666s-19.102 42.666-42.666 42.666c0 23.564-19.102 42.666-42.666 42.666s-42.666-19.102-42.666-42.666c-23.564 0-42.666-19.102-42.666-42.666s19.102-42.666 42.666-42.666z" />
<glyph unicode="&#xe940;" glyph-name="instagram" d="M741.403 960h-458.823c-155.814 0-282.579-126.771-282.579-282.585v-458.823c0-155.82 126.765-282.585 282.579-282.585h458.823c155.826 0 282.591 126.771 282.591 282.585v458.823c0.006 155.814-126.765 282.585-282.591 282.585zM933.146 218.591c0-105.723-86.014-191.732-191.738-191.732h-458.829c-105.717-0.006-191.726 86.008-191.726 191.732v458.823c0 105.717 86.008 191.732 191.726 191.732h458.823c105.723 0 191.738-86.014 191.738-191.732v-458.823zM511.997 711.848c-145.493 0-263.857-118.364-263.857-263.857 0-145.487 118.364-263.845 263.857-263.845s263.857 118.358 263.857 263.845c0 145.493-118.364 263.857-263.857 263.857zM511.997 275.005c-95.39 0-173.004 77.601-173.004 172.992 0 95.396 77.607 173.004 173.004 173.004s173.004-77.607 173.004-173.004c0-95.39-77.613-172.992-173.004-172.992zM786.92 788.886c-17.504 0-34.7-7.087-47.062-19.503-12.423-12.356-19.564-29.558-19.564-47.123 0-17.511 7.147-34.706 19.564-47.123 12.356-12.356 29.558-19.503 47.062-19.503 17.565 0 34.706 7.147 47.123 19.503 12.417 12.417 19.503 29.618 19.503 47.123 0 17.565-7.087 34.767-19.503 47.123-12.356 12.417-29.558 19.503-47.123 19.503z" />
<glyph unicode="&#xe941;" glyph-name="vk" d="M881.297 369.286c33.967-33.163 69.819-64.365 100.284-100.873 13.458-16.223 26.199-32.965 35.946-51.792 13.811-26.764 1.302-56.216-22.696-57.814l-149.179 0.067c-38.476-3.193-69.169 12.297-94.978 38.604-20.654 21.038-39.781 43.428-59.641 65.176-8.142 8.889-16.664 17.253-26.845 23.864-20.365 13.219-38.042 9.171-49.679-12.068-11.853-21.603-14.541-45.524-15.705-69.6-1.598-35.128-12.216-44.363-47.502-45.972-75.41-3.556-146.979 7.853-213.463 45.894-58.615 33.537-104.069 80.881-143.631 134.48-77.029 104.368-136.017 219.052-189.034 336.948-11.934 26.562-3.206 40.821 26.101 41.325 48.667 0.945 97.326 0.878 146.050 0.067 19.78-0.289 32.874-11.634 40.511-30.32 26.33-64.742 58.548-126.338 98.988-183.432 10.77-15.201 21.751-30.401 37.389-41.1 17.3-11.846 30.472-7.92 38.61 11.352 5.164 12.22 7.425 25.381 8.589 38.469 3.856 45.026 4.364 89.975-2.399 134.843-4.152 28.002-19.924 46.13-47.866 51.429-14.258 2.702-12.136 8.007-5.232 16.146 11.991 14.036 23.268 22.774 45.75 22.774h168.595c26.542-5.238 32.437-17.162 36.070-43.869l0.145-187.275c-0.289-10.339 5.164-41.019 23.787-47.862 14.904-4.872 24.729 7.052 33.671 16.503 40.367 42.843 69.176 93.474 94.914 145.902 11.422 23.053 21.243 46.994 30.761 70.916 7.052 17.751 18.117 26.485 38.112 26.098l162.263-0.145c4.811 0 9.679-0.071 14.339-0.868 27.343-4.66 34.835-16.422 26.391-43.122-13.306-41.891-39.196-76.8-64.51-111.871-27.060-37.443-56.001-73.604-82.836-111.269-24.655-34.395-22.696-51.732 7.93-81.604v0z" />
<glyph unicode="&#xe942;" glyph-name="phone1" d="M1001.042 150.739l-158.141 158.158c-31.499 31.372-83.661 30.419-116.257-2.189l-79.672-79.654c-5.034 2.774-10.244 5.672-15.721 8.746-50.312 27.877-119.173 66.086-191.634 138.601-72.676 72.667-110.921 141.634-138.883 191.978-2.951 5.334-5.778 10.476-8.57 15.36l79.76 79.713c32.646 32.655 33.546 84.803 2.121 116.266l-158.141 158.176c-31.425 31.419-83.611 30.466-116.257-2.189l-44.569-44.825 1.218-1.209c-14.945-19.069-27.433-41.063-36.726-64.78-8.567-22.576-13.9-44.119-16.339-65.707-20.881-173.112 58.226-331.323 272.912-546.013 296.762-296.741 535.913-274.324 546.23-273.23 22.47 2.686 44.005 8.055 65.889 16.554 23.511 9.185 45.49 21.655 64.548 36.568l0.974-0.865 45.152 44.213c32.578 32.649 33.517 84.814 2.106 116.328z" />
<glyph unicode="&#xe943;" glyph-name="aevrika" horiz-adv-x="751" d="M374.921 960c-207.015-0.346-375.317-168.994-374.921-376.009 0.148-42.916 7.416-84.151 20.716-122.568 23.436-67.192 65.412-125.732 119.7-169.439 49.343-40.592 83.607-98.736 93.298-164.791h0.099c0.544-4.895 3.758-8.949 8.207-10.531 0.099-0.049 0.198-0.049 0.396-0.049 0.297-0.099 0.643-0.148 0.89-0.297 33.917-9.493 69.318-15.574 105.757-17.552 9.097-0.494 18.145-0.692 27.342-0.692 8.999 0 17.799 0.297 26.699 0.791 36.637 2.027 72.285 8.109 106.35 17.898h0.099c0 0 0.099 0 0.099 0.049 4.153 1.384 7.416 4.944 8.405 9.196 0 0.692 0.099 1.286 0.099 1.879 9.097 62.792 40.444 118.464 85.733 158.759 5.587 4.994 11.471 9.839 17.601 14.388 49.393 42.916 87.562 98.489 109.268 161.726 13.349 38.466 20.469 79.75 20.37 122.518-0.396 206.817-169.142 375.119-376.207 374.723zM532.741 373.911c-49.591-43.015-87.76-98.588-109.465-161.874-3.659-0.494-7.268-0.939-11.026-1.236-11.767-1.137-23.881-1.829-36.043-1.829-12.558 0-24.919 0.593-37.082 1.829-3.56 0.297-7.219 0.742-10.828 1.137-23.386 67.093-65.363 125.682-119.601 169.488v0.099c-58.49 48.058-95.869 121.035-96.066 202.565-0.247 144.965 117.524 263.083 262.588 263.33 144.915 0.297 263.083-117.475 263.28-262.44 0.099-78.218-34.016-148.525-88.255-196.879-5.587-4.895-11.471-9.74-17.503-14.19zM503.718 627.303c-23.782 0-43.213-18.393-44.943-41.68v-0.989c0-1.335 0-2.818-0.099-4.104-0.099-0.099-0.099-0.099 0-0.099-2.175-44.004-38.614-79.058-82.915-79.058-45.141-0.148-81.926 35.697-83.409 80.393v0.89c-0.544 24.425-20.519 44.103-45.141 44.004-24.869 0-44.894-20.172-44.894-45.042 1.434-94.336 78.91-170.527 173.543-170.378 93.842 0.198 170.23 75.152 172.949 168.45 0.099 0.198 0.099 0.396 0.099 0.692v2.769c-0.494 24.573-20.568 44.201-45.19 44.152zM511.135 74.933c-0.346 0-0.643 0-0.989-0.099 0 0-0.297-0.049-0.297-0.099-34.016-8.9-69.318-14.585-105.658-16.464-9.196-0.494-18.442-0.841-27.836-0.841-9.542 0-19.134 0.198-28.479 0.791-36.439 1.78-71.889 7.416-105.955 16.365-0.148 0-0.346 0.148-0.544 0.148-0.346 0.049-0.593 0.099-0.939 0.099-2.324 0-4.153-1.78-4.549-3.955 0-0.544 0.099-1.038 0.198-1.483v-0.099c2.522-55.079 36.884-101.901 85.090-122.32 16.81-7.12 35.351-11.026 54.733-11.026 19.629 0.099 38.268 4.153 55.277 11.421 48.058 20.716 82.173 67.687 84.299 122.716 0.099 0.198 0.099 0.247 0.099 0.396v0.148c-0.099 2.423-2.077 4.301-4.45 4.301z" />
<glyph unicode="&#xe944;" glyph-name="menu" d="M43.886 733.258h936.229c24.137 0 43.886 19.749 43.886 43.886s-19.749 43.886-43.886 43.886h-936.229c-24.137 0-43.886-19.749-43.886-43.886s19.749-43.886 43.886-43.886zM43.886 404.116h936.229c24.137 0 43.886 19.749 43.886 43.886s-19.749 43.886-43.886 43.886h-936.229c-24.137 0-43.886-19.749-43.886-43.886s19.749-43.886 43.886-43.886zM43.886 74.973h936.229c24.137 0 43.886 19.749 43.886 43.886s-19.749 43.886-43.886 43.886h-936.229c-24.137 0-43.886-19.749-43.886-43.886s19.749-43.886 43.886-43.886z" />
<glyph unicode="&#xe945;" glyph-name="ready" d="M512.006 960c-282.795 0-512.006-229.188-512.006-511.994 0-282.795 229.211-512.006 512.006-512.006s512.006 229.211 512.006 512.006c0 282.806-229.211 511.994-512.006 511.994zM869.049 690.805c-69.365-52.137-148.282-133.936-235.429-245.49-87.090-111.452-153.38-215.103-198.644-310.841l-2.736-5.664-42.121-28.487c-30.556-21.128-51.142-37.034-60.491-45.75l-27.775-26.091-10.072 36.774c-3.776 13.848-13.17 39.374-27.594 74.429l-14.165 32.896c-19.726 45.93-37.882 79.46-53.256 99.231-15.284 19.783-31.008 31.461-47.411 36.955l-33.755 11.87 24.542 25.887c38.289 40.086 75.91 64.187 116.448 64.447 46.88-3.957 72.146-46.111 104.951-114.244 54.013 84.332 120.348 166.211 198.824 245.942 90.063 91.329 178.51 162.164 265.793 211.757l18.2 10.378 42.482-60.513-17.793-13.486z" />
<glyph unicode="&#xe946;" glyph-name="placeholder" d="M514.582 960c-181.945 0-329.39-147.445-329.39-329.358 0-181.891 329.39-693.368 329.39-693.368s329.325 511.477 329.325 693.368c0 181.913-147.434 329.358-329.325 329.358zM514.527 433.021c-109.11 0-197.61 88.511-197.61 197.61 0 109.121 88.5 197.643 197.61 197.643 109.165 0 197.621-88.522 197.621-197.643 0-109.1-88.456-197.61-197.621-197.61z" />
<glyph unicode="&#xe947;" glyph-name="notes" d="M370.005 367.627c-15.232-19.456 4.981-164.064 4.981-164.064s144.459-9.333 161.888-2.773 380.032 380.032 380.032 380.032l-166.88 166.869c0 0-364.811-360.576-380.021-380.064zM505.088 260.757c-16.299-10.080-18.080-8.309-18.080-8.309l-9.781 63.115-64.885 0.885c0 0 4.448 21.312 8.011 28.437 3.552 7.104 64.672 67.936 64.672 67.936l87.328-88.373c-0.011 0-50.965-53.589-67.264-63.691zM745.92 643.019l-190.251-190.261c-4.352-4.341-10.176-2.069-14.624 2.144 0.075-0.085 0.117-0.171 0.192-0.235l-0.672 0.672c0.16-0.16 0.32-0.277 0.48-0.427-4.363 4.469-6.165 9.76-1.728 14.197l190.272 190.272c4.48 4.491 9.813 2.688 14.315-1.824 4.512-4.533 6.517-10.048 2.016-14.539zM962.325 794.24c-21.557 21.557-43.584 48.736-60.181 55.147-55.787 21.525-78.528-42.080-111.936-63.499 53.045-57.237 108.224-112.363 165.408-165.419 20.523 29.621 52.395 39.979 63.499 71.851 16.448 47.285-30.165 75.253-56.789 101.92zM751.445 229.888h0.032c-0.139-64.779-52.576-117.205-117.397-117.355h-439.712c-64.821 0.149-117.269 52.576-117.387 117.355v439.765c0.128 64.821 52.576 117.248 117.387 117.397l439.723-0.032c28.203-0.032 54.037-10.005 74.283-26.592l51.040 57.664c-33.845 28.576-77.525 45.899-125.333 45.909h-439.712c-107.371-0.011-194.357-86.997-194.368-194.347v-439.765c0.011-107.328 86.997-194.315 194.368-194.315h439.723c107.371 0 194.325 86.987 194.357 194.315h0.032v163.339l-77.024-75.776v-87.563z" />
<glyph unicode="&#xe948;" glyph-name="repair" d="M812.602 315.613c0.244 0.070 0.442 0.14 0.663 0.14l-0.745 0.407c-3.037 13.231-16.349 23.68-44.183 39.983l-376.064 198.784c-47.057 25.891-60.556 30.976-92.707-28.579l-151.971-287.511c-17.699-33.455-4.887-74.95 28.579-92.66l376.041-198.772c33.489-17.687 74.973-4.911 92.672 28.591l152.017 287.453c11.869 24.681 18.281 39.703 15.697 52.166zM613.283-7.296c-8.46-16.023-28.323-22.132-44.335-13.708l-376.052 198.772c-15.965 8.541-22.097 28.346-13.661 44.346l151.983 287.511c2.793 5.236 6.784 9.402 11.462 12.323 0.303-1.233 0.547-2.513 0.687-3.782l2.479 4.678c19.072-32.71-17.792-82.013-20.829-125.44-1.001-14.383 3.398-44.428 22.621-50.118 32.698-9.728 37.655 87.028 74.764 62.301 29.975-19.98-26.193-84.003-39.308-115.642-10.263-24.704-15.22-62.068 1.99-71.983 14.429-8.343 33.489 6.086 43.625 20.596 22.377 32.070 37.213 107.345 77.521 88.157 17.699-8.436 10.496-33.839 26.473-39.459 13.836-4.841 24.401 21.655 36.736 35.153 9.937 10.915 29.498 26.182 40.785 22.086 14.255-5.155 12.009-24.995 28.009-33.024 15.604-7.796 38.982 5.457 51.782-1.885 13.673-7.82 9.402-27.473 20.073-34.246 18.828-12.020 35.84 5.411 54.586 10.868 1.408 0.908 2.828 1.769 4.271 2.665-0.337-4.34-1.548-8.634-3.677-12.73l-151.983-287.441zM392.937 577.85l397.196-209.99c24.006-12.66 54.051-2.886 67.142 21.911l25.332 47.907c13.079 24.704-2.851 41.658-26.81 54.307 0 0-122.112 41.274-130.525 94.266 32.849 90.88 158.255 281.833 158.255 281.833 13.079 24.774-5.841 60.451-30.592 73.53l-21.167 11.206c-24.751 13.079-64.931 8.634-78.010-16.116 0 0-87.191-211.153-143.779-289.489-48.512-22.889-151.401 54.749-151.401 54.749-23.959 12.672-46.883 16.303-59.962-8.448l-25.344-47.919c-13.114-24.751-4.294-55.075 19.665-67.747z" />
<glyph unicode="&#xe949;" glyph-name="bus-2" d="M939.335 153.894l-42.649 621.361c0 66.734-54.119 120.799-120.778 120.799h-83.38c0.468 2.919 0.839 5.85 0.839 8.878 0 30.415-24.62 55.056-55.013 55.056h-255.695c-30.393 0-55.013-24.641-55.013-55.056 0-3.028 0.403-5.959 0.871-8.878h-83.434c-66.713 0-120.756-54.065-120.756-120.799l-42.627-621.361c0-42.235 21.755-79.393 54.61-100.962v-71.451c0-27.343 37.539-49.511 83.881-49.511 46.32 0 83.924 22.169 83.924 49.511v51.668h418.086v-51.668c0-27.343 37.583-49.511 83.957-49.511 46.32 0 83.848 22.169 83.848 49.511v75.253c29.87 22.005 49.326 57.322 49.326 97.16zM417.422 923.735h186.117c17.811 0 32.692-11.645 37.953-27.67h-261.991c5.273 16.025 20.164 27.67 37.921 27.67zM207.458 740.265c5.665 53.27 60.786 49.228 109.426 49.228h387.225c48.727 0 109.459 6.7 109.459-49.228l9.772-268.996c0-27.147-39.413-33.356-88.129-33.356h-449.416c-48.64 0-88.129 4.837-88.129 32.038l9.793 270.314zM288.539 123.697c-39.206 0-71.005 31.798-71.005 71.026 0 39.239 31.798 71.037 71.005 71.037 39.271 0 71.048-31.798 71.048-71.037 0-39.228-31.777-71.026-71.048-71.026zM661.417 194.723c0 39.239 31.809 71.037 71.037 71.037 39.271 0 71.037-31.798 71.037-71.037 0-39.228-31.755-71.026-71.037-71.026-39.228 0-71.037 31.798-71.037 71.026z" />
<glyph unicode="&#xe94a;" glyph-name="sale" horiz-adv-x="1031" d="M668.184 437.014h-0.681c-29.124 0-42.044-33.737-42.044-75.737-0.659-44.064 14.238-75.737 42.713-75.737 27.849 0 41.385 28.476 41.385 75.737 0.022 42.659-10.975 75.737-41.374 75.737zM364.631 611.703h-0.659c-28.465 0-42.087-33.639-42.087-76.396 0-43.977 14.94-75.64 43.416-75.64 27.817 0 41.439 28.476 41.439 76.385-0.011 42.67-11.667 75.651-42.109 75.651zM876.825 396.612l154.661 106.46-175.704 66.35 87.577 166.144-186.431-22.88 0.292 187.792-154.391-106.924-87.101 166.446-87.015-166.457-154.38 106.935 0.281-187.792-186.42 22.88 87.479-166.144-175.672-66.35 154.715-106.46-124.738-140.38 186.474-22.351-45.198-182.294 175.531 66.814 44.626-182.391 124.316 140.758 124.36-140.758 44.69 182.391 175.51-66.814-45.187 182.294 186.42 22.351-124.694 140.38zM248.773 533.427c0 75.078 45.943 132.019 117.835 132.019h0.616c71.837 0 112.617-53.095 112.617-124.878 0-88.041-55.623-134.644-116.517-134.644-64.092 0-114.551 48.579-114.551 127.503zM420.912 230.49h-53.041l242.054 434.308h52.436l-241.449-434.308zM666.261 231.797c-63.433 0-113.935 47.931-114.583 126.855 0 75.078 45.987 132.019 117.77 132.019h0.67c71.87 0 112.66-53.095 112.66-124.878-0.011-88.041-55.72-133.995-116.517-133.995z" />
<glyph unicode="&#xe94b;" glyph-name="arrow-right" d="M782.857 397.307l-440.304-440.29c-28.009-28.022-73.42-28.022-101.415 0-27.997 27.997-27.997 73.406 0 101.401l389.601 389.589-389.589 389.576c-27.997 28.009-27.997 73.413 0 101.41 27.997 28.009 73.406 28.009 101.415 0l440.304-440.297c13.999-14.005 20.99-32.342 20.99-50.687 0-18.354-7.005-36.704-21.001-50.703z" />
<glyph unicode="&#xe94c;" glyph-name="train-station" horiz-adv-x="787" d="M786.863 873.768h-264.084v86.232h-118.568v-420.379h-404.211v-237.137h404.211v-366.484h118.568v700.632h264.084z" />
<glyph unicode="&#xe94d;" glyph-name="arrow-left" d="M394.644 448l388.191 386.067c29 28.812 29 75.52 0 104.328-28.996 28.808-76.014 28.808-105.015 0l-436.913-434.528c-15.454-15.352-22.409-35.771-21.392-55.868-1.017-20.101 5.938-40.517 21.392-55.872l436.913-434.523c29-28.812 76.014-28.812 105.015 0 29 28.808 29 75.516 0 104.32l-388.191 386.076z" />
</font>
</defs>
</svg>
